<?xml version="1.0" encoding="UTF-8"?>
<svg xmlns="http://www.w3.org/2000/svg" xmlns:xlink="http://www.w3.org/1999/xlink" version="1.2" >
<font id="CenturyGothicStd">
<font-face  font-family="CenturyGothicStd" units-per-em="1000" ascent="736" descent="-264" font-style="normal" font-weight="500" font-stretch="normal" cap-height="718" x-height="531" underline-position="-75" underline-thickness="50" />
<missing-glyph  horiz-adv-x="500" d="M12 0 L487 0 L487 665 L12 665 L12 0 Z M88 618 L411 618 L250 375 L88 618 Z M60 575 L221 333 C221 333 60 90 60 91 L60 575 Z M440 575 L440 90 L278 333 L440 575 Z M411 48 L88 48 L250 290 L411 48 Z " />
<glyph glyph-name="NULL" d="" />
<glyph glyph-name="CR" unicode="&#xd;" horiz-adv-x="250" d="" />
<glyph glyph-name="space" unicode="&#x20;" horiz-adv-x="277" d="" />
<glyph glyph-name="exclam" unicode="&#x21;" horiz-adv-x="295" d="M112 736 L112 180 L181 180 L181 736 L112 736 Z M147 108 C114 108 87 80 87 47 C87 14 113 -14 147 -14 C180 -14 207 13 207 47 C207 81 179 108 147 108 L147 108 Z " />
<glyph glyph-name="quotedbl" unicode="&#x22;" horiz-adv-x="309" d="M286 736 L214 736 L225 510 L275 510 L286 736 Z M96 736 L24 736 L35 510 L85 510 L96 736 Z " />
<glyph glyph-name="numbersign" unicode="&#x23;" horiz-adv-x="720" d="M490 294 L513 457 L630 457 L630 510 L521 510 L554 739 L500 739 L467 510 L304 510 L338 739 L285 739 L251 510 L120 510 L120 457 L243 457 L218 294 L90 294 L90 241 L210 241 L173 0 L227 0 L264 241 L427 241 L392 0 L446 0 L481 241 L602 241 L602 294 L490 294 Z M434 294 L272 294 L296 457 L459 457 L434 294 Z " />
<glyph glyph-name="dollar" unicode="&#x24;" horiz-adv-x="554" d="M259 718 C138 705 81 627 81 546 C81 436 165 398 259 352 L259 50 C190 57 131 91 87 150 L35 111 C88 24 165 -10 259 -18 L259 -171 L323 -171 L323 -18 C460 0 523 84 523 174 C523 294 434 343 323 402 L323 645 C364 636 390 616 417 575 L470 618 C426 680 383 704 323 715 L323 768 L259 768 L259 718 Z M259 428 C186 462 151 498 151 548 C151 600 186 644 259 650 L259 428 Z M323 326 C404 283 453 239 453 172 C453 112 401 63 323 52 L323 326 Z " />
<glyph glyph-name="percent" unicode="&#x25;" horiz-adv-x="775" d="M617 750 C567 736 496 714 388 714 C274 714 229 736 191 736 C108 736 23 669 23 566 C23 475 93 398 190 398 C294 398 361 483 361 567 C361 607 350 633 331 659 C335 659 346 658 350 658 C425 658 496 663 563 679 L87 -50 L152 -50 L675 750 L617 750 Z M192 674 C246 674 299 621 299 567 C299 496 246 460 192 460 C139 460 85 496 85 567 C85 626 133 674 192 674 L192 674 Z M415 148 C415 55 491 -21 584 -21 C669 -21 753 63 753 148 C753 261 669 317 584 317 C500 317 415 261 415 148 L415 148 Z M691 148 C691 89 643 42 584 42 C525 42 477 89 477 148 C477 224 524 255 573 255 C630 255 691 214 691 148 L691 148 Z " />
<glyph glyph-name="ampersand" unicode="&#x26;" horiz-adv-x="757" d="M539 96 C551 83 583 53 632 0 L732 0 C691 48 643 92 596 142 C627 167 655 192 680 214 L632 266 C608 244 577 218 545 191 C543 193 481 252 361 380 C439 446 485 500 485 561 C485 635 421 691 328 691 C240 691 169 638 169 562 C169 507 204 461 261 393 C158 311 89 244 89 149 C89 60 153 -17 272 -17 C383 -17 455 33 539 96 L539 96 Z M308 338 C377 259 440 198 491 146 C411 89 345 49 279 49 C207 49 159 102 159 153 C159 216 217 269 308 338 L308 338 Z M317 434 C266 491 239 533 239 561 C239 601 283 625 326 625 C377 625 415 597 415 562 C415 529 381 484 317 434 L317 434 Z " />
<glyph glyph-name="quotesingle" unicode="&#x27;" horiz-adv-x="198" d="M135 736 L63 736 L74 510 L124 510 L135 736 Z " />
<glyph glyph-name="parenleft" unicode="&#x28;" horiz-adv-x="369" d="M284 -208 C233 -87 204 77 204 251 C204 442 245 622 308 750 L229 750 C163 600 129 425 129 243 C129 70 160 -92 209 -208 L284 -208 Z " />
<glyph glyph-name="parenright" unicode="&#x29;" horiz-adv-x="369" d="M84 750 C135 629 167 466 167 291 C167 99 123 -80 60 -208 L139 -208 C204 -58 237 118 237 300 C237 474 207 635 159 750 L84 750 Z " />
<glyph glyph-name="asterisk" unicode="&#x2a;" horiz-adv-x="425" d="M196 591 L75 677 L43 623 L180 562 L43 502 L75 446 L196 531 L180 386 L244 386 L230 531 L350 446 L382 502 L247 562 L382 623 L350 677 L230 591 L244 736 L180 736 L196 591 Z " />
<glyph glyph-name="plus" unicode="&#x2b;" horiz-adv-x="606" d="M56 393 L56 326 L270 326 L270 114 L338 114 L338 326 L550 326 L550 393 L338 393 L338 605 L270 605 L270 393 L56 393 Z " />
<glyph glyph-name="comma" unicode="&#x2c;" horiz-adv-x="277" d="M63 -64 L111 -84 L210 101 L145 132 L63 -64 Z " />
<glyph glyph-name="hyphen" unicode="&#x2d;" horiz-adv-x="332" d="M32 240 L301 240 L301 300 L32 300 L32 240 Z " />
<glyph glyph-name="period" unicode="&#x2e;" horiz-adv-x="277" d="M151 108 C118 108 91 80 91 47 C91 14 117 -14 151 -14 C184 -14 211 13 211 47 C211 81 183 108 151 108 L151 108 Z " />
<glyph glyph-name="slash" unicode="&#x2f;" horiz-adv-x="437" d="M333 736 L35 -98 L110 -98 L408 736 L333 736 Z " />
<glyph glyph-name="zero" unicode="0" horiz-adv-x="554" d="M31 360 C31 250 43 162 85 93 C129 20 195 -18 275 -18 C365 -18 444 37 486 135 C513 199 522 274 522 360 C522 446 514 520 486 584 C444 682 365 736 275 736 C158 736 71 655 43 511 C33 461 31 410 31 360 L31 360 Z M101 359 C101 457 109 532 142 587 C173 639 223 670 276 670 C381 670 455 569 455 359 C455 148 380 48 276 48 C224 48 173 77 142 129 C109 184 101 260 101 359 L101 359 Z " />
<glyph glyph-name="one" unicode="1" horiz-adv-x="554" d="M255 648 L255 0 L327 0 L327 718 L185 718 L142 648 L255 648 Z " />
<glyph glyph-name="two" unicode="2" horiz-adv-x="554" d="M30 0 L518 0 L518 70 L186 70 L365 262 C450 354 508 422 508 520 C508 640 416 736 286 736 C152 736 51 633 47 493 L116 493 C125 603 192 670 283 670 C370 670 438 603 438 520 C438 442 389 387 305 296 L30 0 Z " />
<glyph glyph-name="three" unicode="3" horiz-adv-x="554" d="M401 551 C401 485 349 438 235 431 L235 365 C281 363 324 360 365 338 C415 311 445 262 445 209 C445 126 377 52 272 52 C179 52 130 101 106 192 L35 192 C61 53 147 -18 271 -18 C420 -18 515 94 515 214 C515 293 469 369 384 404 C445 440 476 490 476 551 C476 653 385 736 269 736 C169 736 86 675 59 552 L132 552 C160 627 200 666 270 666 C348 666 401 612 401 551 L401 551 Z " />
<glyph glyph-name="four" unicode="4" horiz-adv-x="554" d="M26 167 L369 167 L369 0 L441 0 L441 167 L528 167 L528 237 L441 237 L441 736 L426 736 L26 167 Z M158 237 L369 535 L369 237 L158 237 Z " />
<glyph glyph-name="five" unicode="5" horiz-adv-x="554" d="M181 718 L115 362 C163 382 212 401 268 401 C371 401 437 334 437 237 C437 127 357 49 265 49 C200 49 133 86 115 174 L41 174 C56 64 138 -17 260 -17 C416 -17 512 96 512 234 C512 366 420 467 285 467 C245 467 219 459 201 454 L236 648 L492 648 L492 718 L181 718 Z " />
<glyph glyph-name="six" unicode="6" horiz-adv-x="554" d="M149 411 C98 335 68 269 68 199 C68 86 156 -18 286 -18 C404 -18 510 69 510 203 C510 319 425 417 306 417 C272 417 250 410 233 404 L426 698 L368 736 L149 411 Z M289 354 C373 354 440 286 440 203 C440 120 372 52 289 52 C206 52 138 120 138 203 C138 286 206 354 289 354 L289 354 Z " />
<glyph glyph-name="seven" unicode="7" horiz-adv-x="554" d="M72 648 L416 648 L84 12 L143 -18 L527 718 L72 718 L72 648 Z " />
<glyph glyph-name="eight" unicode="8" horiz-adv-x="554" d="M67 549 C67 487 102 431 174 394 C87 350 35 292 35 200 C35 89 119 -17 276 -17 C437 -17 520 92 520 206 C520 294 472 350 385 394 C453 431 486 481 486 547 C486 648 399 736 281 736 C159 736 67 648 67 549 L67 549 Z M278 666 C369 666 416 605 416 550 C416 489 361 424 280 424 C209 424 142 481 142 548 C142 613 200 666 278 666 L278 666 Z M281 358 C379 358 450 281 450 205 C450 122 382 49 277 49 C170 49 105 119 105 198 C105 279 178 358 281 358 L281 358 Z " />
<glyph glyph-name="nine" unicode="9" horiz-adv-x="554" d="M410 307 C461 383 491 450 491 519 C491 633 403 736 273 736 C154 736 50 648 50 515 C50 398 134 301 253 301 C283 301 307 308 327 314 L133 20 L192 -18 L410 307 Z M270 364 C187 364 120 432 120 515 C120 599 187 666 270 666 C354 666 421 598 421 515 C421 432 353 364 270 364 L270 364 Z " />
<glyph glyph-name="colon" unicode="&#x3a;" horiz-adv-x="277" d="M151 108 C118 108 91 80 91 47 C91 14 117 -14 151 -14 C184 -14 211 13 211 47 C211 81 183 108 151 108 L151 108 Z M151 545 C118 545 91 517 91 484 C91 451 117 423 151 423 C184 423 211 450 211 484 C211 518 183 545 151 545 L151 545 Z " />
<glyph glyph-name="semicolon" unicode="&#x3b;" horiz-adv-x="277" d="M152 545 C119 545 92 518 92 484 C92 450 119 423 152 423 C185 423 212 450 212 484 C212 518 185 545 152 545 L152 545 Z M63 -64 L111 -84 L210 101 L145 132 L63 -64 Z " />
<glyph glyph-name="less" unicode="&#x3c;" horiz-adv-x="606" d="M146 358 L555 549 L555 621 L51 391 L51 327 L555 98 L555 170 L146 358 Z " />
<glyph glyph-name="equal" unicode="&#x3d;" horiz-adv-x="606" d="M56 500 L56 433 L550 433 L550 500 L56 500 Z M56 285 L56 218 L550 218 L550 285 L56 285 Z " />
<glyph glyph-name="greater" unicode="&#x3e;" horiz-adv-x="606" d="M51 98 L555 327 L555 391 L51 621 L51 549 L461 358 L51 170 L51 98 Z " />
<glyph glyph-name="question" unicode="&#x3f;" horiz-adv-x="591" d="M405 327 C398 259 369 225 300 225 C237 225 201 261 201 297 C201 332 227 355 279 376 C407 427 501 460 501 568 C501 661 427 736 297 736 C171 736 84 659 83 523 L154 523 C157 621 214 670 298 670 C374 670 431 627 431 567 C431 501 368 483 234 428 C164 400 126 359 126 297 C126 217 195 155 300 155 C401 155 472 213 477 327 L405 327 Z M297 108 C264 108 237 80 237 47 C237 14 263 -14 297 -14 C330 -14 357 13 357 47 C357 81 329 108 297 108 L297 108 Z " />
<glyph glyph-name="at" unicode="&#x40;" horiz-adv-x="867" d="M431 560 C304 560 223 449 223 331 C223 221 295 154 385 154 C427 154 468 174 491 203 C492 168 508 149 548 149 C629 149 800 237 800 438 C800 614 638 752 449 752 C231 752 67 583 67 364 C67 153 237 -13 455 -13 C607 -13 685 57 757 147 L705 147 C640 82 572 30 454 30 C254 30 105 178 105 373 C105 555 245 709 446 709 C625 709 762 589 762 427 C762 266 632 192 591 192 C576 192 565 200 565 216 C565 221 567 232 568 236 L624 555 L572 555 L559 488 C532 531 500 560 431 560 L431 560 Z M409 209 C340 209 293 261 293 340 C293 426 351 508 438 508 C502 508 536 456 536 397 C536 297 489 209 409 209 L409 209 Z " />
<glyph glyph-name="A" unicode="A" horiz-adv-x="740" d="M364 718 L24 0 L104 0 L216 236 L526 236 L639 0 L716 0 L381 718 L364 718 Z M494 306 L248 306 L372 566 L494 306 Z " />
<glyph glyph-name="B" unicode="B" horiz-adv-x="574" d="M286 0 C437 0 520 99 520 206 C520 296 469 358 369 392 C431 426 461 480 461 543 C461 644 392 718 241 718 L89 718 L89 0 L286 0 Z M161 648 L255 648 C338 648 386 607 386 543 C386 503 367 465 335 444 C305 424 263 417 209 417 L161 417 L161 648 Z M161 347 L210 347 C277 347 333 343 375 320 C419 296 445 252 445 205 C445 133 382 81 334 77 C310 75 279 70 248 70 L161 70 L161 347 Z " />
<glyph glyph-name="C" unicode="C" horiz-adv-x="813" d="M756 585 C685 684 574 736 442 736 C219 736 55 575 55 363 C55 152 202 -17 442 -17 C573 -17 682 32 756 125 L699 168 C632 90 547 49 447 49 C266 49 130 179 130 357 C130 540 273 666 443 666 C546 666 636 625 699 542 L756 585 Z " />
<glyph glyph-name="D" unicode="D" horiz-adv-x="744" d="M87 0 L338 0 C569 0 693 146 693 351 C693 509 616 633 487 685 C416 714 343 718 264 718 L87 718 L87 0 Z M159 70 L159 648 L232 648 C388 648 490 629 558 540 C598 488 618 423 618 350 C618 275 596 210 555 160 C491 82 401 70 265 70 L159 70 Z " />
<glyph glyph-name="E" unicode="E" horiz-adv-x="536" d="M88 0 L498 0 L498 70 L160 70 L160 353 L498 353 L498 423 L160 423 L160 648 L498 648 L498 718 L88 718 L88 0 Z " />
<glyph glyph-name="F" unicode="F" horiz-adv-x="485" d="M87 0 L159 0 L159 353 L447 353 L447 423 L159 423 L159 648 L447 648 L447 718 L87 718 L87 0 Z " />
<glyph glyph-name="G" unicode="G" horiz-adv-x="872" d="M513 345 L513 275 L742 275 C722 130 600 49 464 49 C271 49 132 196 132 361 C132 534 281 666 453 666 C546 666 644 624 725 545 L780 597 C684 688 583 736 451 736 C215 736 57 562 57 359 C57 161 213 -17 462 -17 C677 -17 822 117 823 345 L513 345 Z " />
<glyph glyph-name="H" unicode="H" horiz-adv-x="683" d="M87 0 L159 0 L159 347 L525 347 L525 0 L597 0 L597 718 L525 718 L525 417 L159 417 L159 718 L87 718 L87 0 Z " />
<glyph glyph-name="I" unicode="I" horiz-adv-x="226" d="M77 0 L149 0 L149 718 L77 718 L77 0 Z " />
<glyph glyph-name="J" unicode="J" horiz-adv-x="482" d="M42 58 C97 12 150 -17 221 -17 C273 -17 320 1 349 33 C387 75 394 133 394 208 L394 718 L322 718 L322 210 C322 159 319 118 296 87 C278 63 251 49 221 49 C178 49 133 77 80 115 L42 58 Z " />
<glyph glyph-name="K" unicode="K" horiz-adv-x="591" d="M88 0 L160 0 L160 335 L476 0 L571 0 L199 396 L544 718 L447 718 L160 449 L160 718 L88 718 L88 0 Z " />
<glyph glyph-name="L" unicode="L" horiz-adv-x="463" d="M88 0 L436 0 L436 70 L160 70 L160 718 L88 718 L88 0 Z " />
<glyph glyph-name="M" unicode="M" horiz-adv-x="919" d="M125 0 L194 518 L452 0 L470 0 L724 514 L794 0 L864 0 L762 718 L750 718 L461 129 L169 718 L157 718 L55 0 L125 0 Z " />
<glyph glyph-name="N" unicode="N" horiz-adv-x="740" d="M161 0 L161 543 L636 0 L652 0 L652 718 L580 718 L580 168 L104 718 L89 718 L89 0 L161 0 Z " />
<glyph glyph-name="O" unicode="O" horiz-adv-x="869" d="M429 736 C222 736 56 570 56 356 C56 155 214 -18 435 -18 C648 -18 813 148 813 359 C813 573 647 736 429 736 L429 736 Z M433 666 C592 666 738 542 738 360 C738 180 601 52 433 52 C271 52 131 179 131 356 C131 540 275 666 433 666 L433 666 Z " />
<glyph glyph-name="P" unicode="P" horiz-adv-x="592" d="M87 0 L159 0 L159 334 L230 334 C329 334 403 338 454 370 C505 402 537 459 537 527 C537 608 492 672 419 700 C384 713 328 718 253 718 L87 718 L87 0 Z M286 648 C342 648 385 645 417 621 C444 600 462 564 462 527 C462 491 445 454 420 434 C388 408 340 404 278 404 C241 404 200 403 159 404 L159 648 L286 648 Z " />
<glyph glyph-name="Q" unicode="Q" horiz-adv-x="871" d="M708 -57 L796 -57 L690 78 C773 156 814 245 814 359 C814 576 644 736 434 736 C218 736 57 566 57 356 C57 155 215 -18 436 -18 C510 -18 575 -1 635 36 L708 -57 Z M517 297 L429 297 L590 93 C545 66 490 52 434 52 C274 52 132 178 132 356 C132 538 275 666 435 666 C593 666 739 542 739 360 C739 271 708 195 645 134 L517 297 Z " />
<glyph glyph-name="R" unicode="R" horiz-adv-x="607" d="M91 0 L163 0 L163 334 L204 334 L462 0 L551 0 L292 334 C411 334 483 363 520 438 C536 470 541 491 541 527 C541 608 497 672 423 700 C388 713 331 718 256 718 L91 718 L91 0 Z M310 648 C418 648 466 597 466 527 C466 490 449 455 423 434 C392 409 344 403 282 403 C244 403 203 404 163 404 L163 648 L310 648 Z " />
<glyph glyph-name="S" unicode="S" horiz-adv-x="498" d="M421 619 C374 683 321 736 233 736 C136 736 59 667 59 568 C59 514 86 457 120 430 C283 298 357 253 357 174 C357 107 299 52 224 52 C169 52 117 92 74 171 L13 134 C66 37 131 -18 230 -18 C347 -18 432 74 432 175 C432 291 333 360 198 460 C157 491 134 532 134 571 C134 618 169 662 231 662 C290 662 324 625 363 574 L421 619 Z " />
<glyph glyph-name="T" unicode="T" horiz-adv-x="426" d="M178 648 L178 0 L250 0 L250 648 L410 648 L410 718 L16 718 L16 648 L178 648 Z " />
<glyph glyph-name="U" unicode="U" horiz-adv-x="655" d="M494 262 C494 206 494 156 456 109 C425 70 382 52 328 52 C274 52 231 70 200 109 C162 156 162 206 162 262 L162 718 L90 718 L90 251 C90 82 181 -18 328 -18 C475 -18 566 82 566 251 L566 718 L494 718 L494 262 Z " />
<glyph glyph-name="V" unicode="V" horiz-adv-x="702" d="M341 0 L357 0 L669 718 L591 718 L349 163 L111 718 L33 718 L341 0 Z " />
<glyph glyph-name="W" unicode="W" horiz-adv-x="960" d="M250 0 L263 0 L481 543 L693 0 L707 0 L913 718 L840 718 L691 201 L488 718 L473 718 L267 201 L121 718 L47 718 L250 0 Z " />
<glyph glyph-name="X" unicode="X" horiz-adv-x="609" d="M263 370 L34 0 L118 0 L306 301 L492 0 L576 0 L348 370 L562 718 L479 718 L306 438 L134 718 L50 718 L263 370 Z " />
<glyph glyph-name="Y" unicode="Y" horiz-adv-x="592" d="M262 0 L334 0 L334 343 L562 718 L479 718 L298 422 L114 718 L31 718 L262 343 L262 0 Z " />
<glyph glyph-name="Z" unicode="Z" horiz-adv-x="480" d="M329 648 L27 0 L423 0 L423 70 L138 70 L438 718 L59 718 L59 648 L329 648 Z " />
<glyph glyph-name="bracketleft" unicode="&#x5b;" horiz-adv-x="351" d="M143 -194 L306 -194 L306 -128 L211 -128 L211 666 L306 666 L306 736 L143 736 L143 -194 Z " />
<glyph glyph-name="backslash" unicode="&#x5c;" horiz-adv-x="605" d="M32 736 L498 -98 L572 -98 L107 736 L32 736 Z " />
<glyph glyph-name="bracketright" unicode="&#x5d;" horiz-adv-x="351" d="M209 736 L45 736 L45 670 L141 670 L141 -124 L45 -124 L45 -194 L209 -194 L209 736 Z " />
<glyph glyph-name="asciicircum" unicode="&#x5e;" horiz-adv-x="672" d="M59 178 L122 178 L335 643 L550 178 L614 178 L365 718 L308 718 L59 178 Z " />
<glyph glyph-name="underscore" unicode="&#x5f;" horiz-adv-x="500" d="M-6 -124 L506 -124 L506 -76 L-6 -76 L-6 -124 Z " />
<glyph glyph-name="grave" unicode="&#x60;" horiz-adv-x="378" d="M54 781 L198 630 L266 630 L159 781 L54 781 Z " />
<glyph glyph-name="a" unicode="a" horiz-adv-x="683" d="M538 434 C485 508 412 545 326 545 C172 545 52 418 52 267 C52 116 169 -13 324 -13 C407 -13 480 21 538 91 L538 0 L605 0 L605 531 L538 531 L538 434 Z M332 479 C451 479 543 386 543 263 C543 131 440 49 331 49 C212 49 122 150 122 265 C122 379 210 479 332 479 L332 479 Z " />
<glyph glyph-name="b" unicode="b" horiz-adv-x="682" d="M149 98 C203 24 274 -14 360 -14 C515 -14 635 115 635 265 C635 416 517 545 362 545 C279 545 207 510 149 440 L149 736 L81 736 L81 0 L149 0 L149 98 Z M355 52 C235 52 144 146 144 269 C144 402 246 483 355 483 C474 483 565 382 565 267 C565 153 478 52 355 52 L355 52 Z " />
<glyph glyph-name="c" unicode="c" horiz-adv-x="647" d="M537 142 C487 80 423 49 346 49 C209 49 121 150 121 266 C121 380 210 479 345 479 C425 479 490 449 537 387 L592 421 C543 503 450 545 348 545 C173 545 51 417 51 261 C51 113 168 -13 343 -13 C450 -13 540 28 592 107 L537 142 Z " />
<glyph glyph-name="d" unicode="d" horiz-adv-x="685" d="M539 0 L607 0 L607 736 L539 736 L539 434 C486 508 413 545 327 545 C173 545 53 418 53 267 C53 116 170 -13 325 -13 C408 -13 481 21 539 91 L539 0 Z M333 479 C452 479 543 386 543 263 C543 131 441 49 332 49 C213 49 123 150 123 265 C123 379 211 479 333 479 L333 479 Z " />
<glyph glyph-name="e" unicode="e" horiz-adv-x="650" d="M599 260 C597 436 475 545 324 545 C158 545 51 409 51 264 C51 122 152 -13 328 -13 C444 -13 527 40 581 146 L524 176 C485 112 432 49 321 49 C207 49 124 138 121 260 L599 260 Z M128 320 C159 428 230 479 325 479 C417 479 496 430 524 320 L128 320 Z " />
<glyph glyph-name="f" unicode="f" horiz-adv-x="314" d="M108 531 L38 531 L38 471 L108 471 L108 0 L176 0 L176 471 L288 471 L288 531 L176 531 L176 603 C176 651 174 685 230 685 C257 685 278 676 294 669 L294 736 C272 743 245 751 216 751 C129 751 108 700 108 614 L108 531 Z " />
<glyph glyph-name="g" unicode="g" horiz-adv-x="673" d="M603 531 L534 531 L534 439 C478 505 415 545 321 545 C180 545 49 427 49 269 C49 112 174 0 321 0 C404 0 481 34 534 101 L534 61 C534 20 531 -18 511 -55 C479 -113 414 -145 326 -145 C232 -145 170 -112 130 -42 L56 -42 C103 -145 177 -207 330 -207 C431 -207 510 -171 555 -110 C598 -51 603 21 603 108 L603 531 Z M332 479 C442 479 537 398 537 270 C537 146 450 66 334 66 C194 66 119 159 119 265 C119 388 213 479 332 479 L332 479 Z " />
<glyph glyph-name="h" unicode="h" horiz-adv-x="610" d="M76 0 L144 0 L144 223 C144 308 151 360 190 411 C226 458 273 483 330 483 C433 483 471 414 471 289 L471 0 L539 0 L539 305 C539 464 458 545 343 545 C264 545 199 508 144 436 L144 736 L76 736 L76 0 Z " />
<glyph glyph-name="i" unicode="i" horiz-adv-x="200" d="M67 0 L135 0 L135 531 L67 531 L67 0 Z M100 750 C70 750 44 726 44 694 C44 663 69 637 100 637 C131 637 157 663 157 694 C157 725 131 750 100 750 L100 750 Z " />
<glyph glyph-name="j" unicode="j" horiz-adv-x="203" d="M69 -80 C69 -122 50 -143 18 -143 C-3 -143 -19 -136 -31 -130 L-31 -192 C-10 -200 16 -209 46 -209 C107 -209 137 -165 137 -80 L137 531 L69 531 L69 -80 Z M102 750 C71 750 46 725 46 694 C46 663 71 637 102 637 C133 637 159 663 159 694 C159 725 133 750 102 750 L102 750 Z " />
<glyph glyph-name="k" unicode="k" horiz-adv-x="502" d="M77 0 L145 0 L145 239 L411 0 L508 0 L200 278 L491 531 L390 531 L145 317 L145 736 L77 736 L77 0 Z " />
<glyph glyph-name="l" unicode="l" horiz-adv-x="200" d="M66 0 L134 0 L134 736 L66 736 L66 0 Z " />
<glyph glyph-name="m" unicode="m" horiz-adv-x="938" d="M505 232 C505 281 507 328 524 371 C551 439 609 479 675 479 C747 479 792 427 795 380 C796 360 801 329 801 290 L801 0 L869 0 L869 315 C869 466 798 545 688 545 C610 545 540 502 493 417 C464 503 406 545 325 545 C249 545 190 508 143 440 L143 531 L75 531 L75 0 L143 0 L143 225 C143 305 150 368 188 417 C218 456 265 479 312 479 C382 479 429 429 432 371 C433 347 437 313 437 272 L437 0 L505 0 L505 232 Z " />
<glyph glyph-name="n" unicode="n" horiz-adv-x="610" d="M144 531 L76 531 L76 0 L144 0 L144 223 C144 307 150 359 190 411 C226 458 273 483 330 483 C433 483 472 414 472 289 L472 0 L540 0 L540 298 C540 465 459 545 343 545 C265 545 199 508 144 436 L144 531 Z " />
<glyph glyph-name="o" unicode="o" horiz-adv-x="655" d="M328 545 C169 545 51 416 51 264 C51 113 168 -14 328 -14 C488 -14 605 113 605 264 C605 416 487 545 328 545 L328 545 Z M328 479 C441 479 535 381 535 263 C535 147 447 52 328 52 C208 52 121 147 121 263 C121 381 214 479 328 479 L328 479 Z " />
<glyph glyph-name="p" unicode="p" horiz-adv-x="682" d="M145 531 L77 531 L77 -194 L145 -194 L145 91 C203 21 275 -13 358 -13 C514 -13 631 116 631 267 C631 418 511 545 356 545 C271 545 198 508 145 434 L145 531 Z M351 479 C473 479 561 379 561 265 C561 149 469 49 351 49 C242 49 140 131 140 263 C140 386 232 479 351 479 L351 479 Z " />
<glyph glyph-name="q" unicode="q" horiz-adv-x="682" d="M538 434 C485 508 412 545 326 545 C172 545 52 418 52 267 C52 116 169 -13 324 -13 C407 -13 480 21 538 91 L538 -194 L606 -194 L606 531 L538 531 L538 434 Z M332 479 C451 479 542 386 542 263 C542 131 440 49 331 49 C212 49 122 150 122 265 C122 379 210 479 332 479 L332 479 Z " />
<glyph glyph-name="r" unicode="r" horiz-adv-x="301" d="M121 531 L49 531 L49 0 L121 0 L121 202 C121 274 123 329 132 363 C152 436 197 479 247 479 C262 479 275 473 283 469 L319 527 C305 535 289 545 258 545 C204 545 161 512 121 454 L121 531 Z " />
<glyph glyph-name="s" unicode="s" horiz-adv-x="388" d="M26 62 C64 13 124 -14 183 -14 C279 -14 343 60 343 143 C343 239 275 266 153 337 C129 351 112 381 112 408 C112 448 148 479 192 479 C235 479 267 459 299 428 L343 473 C298 517 254 545 196 545 C115 545 50 488 50 404 C50 311 112 282 234 214 C260 200 278 171 278 140 C278 90 232 52 180 52 C140 52 103 73 69 111 L26 62 Z " />
<glyph glyph-name="t" unicode="t" horiz-adv-x="339" d="M137 531 L43 531 L43 471 L137 471 L137 0 L205 0 L205 471 L314 471 L314 531 L205 531 L205 729 L137 729 L137 531 Z " />
<glyph glyph-name="u" unicode="u" horiz-adv-x="608" d="M462 272 C462 196 463 145 421 100 C393 71 350 53 301 53 C234 53 179 84 154 138 C139 170 139 216 139 272 L139 531 L67 531 L67 256 C67 77 149 -13 301 -13 C453 -13 534 77 534 256 L534 531 L462 531 L462 272 Z " />
<glyph glyph-name="v" unicode="v" horiz-adv-x="554" d="M271 0 L283 0 L526 531 L453 531 L277 145 L99 531 L26 531 L271 0 Z " />
<glyph glyph-name="w" unicode="w" horiz-adv-x="831" d="M230 0 L244 0 L414 380 L583 0 L596 0 L826 531 L755 531 L590 146 L419 531 L407 531 L237 146 L75 531 L4 531 L230 0 Z " />
<glyph glyph-name="x" unicode="x" horiz-adv-x="480" d="M197 279 L-4 0 L78 0 L238 223 L400 0 L483 0 L279 279 L460 531 L379 531 L238 335 L97 531 L15 531 L197 279 Z " />
<glyph glyph-name="y" unicode="y" horiz-adv-x="536" d="M237 40 L135 -194 L207 -194 L524 531 L451 531 L274 122 L91 531 L19 531 L237 40 Z " />
<glyph glyph-name="z" unicode="z" horiz-adv-x="425" d="M32 471 L305 471 L4 0 L413 0 L413 60 L122 60 L423 531 L32 531 L32 471 Z " />
<glyph glyph-name="braceleft" unicode="&#x7b;" horiz-adv-x="351" d="M37 209 C145 206 139 107 139 -43 C139 -130 160 -184 212 -208 C241 -222 268 -220 293 -220 L320 -220 L320 -144 L305 -144 C239 -144 221 -130 221 -43 L221 28 C221 145 202 214 118 249 C196 286 221 335 221 469 L221 541 C221 628 239 642 305 642 L320 642 L320 718 L293 718 C267 718 240 719 212 706 C160 682 139 627 139 540 C139 390 145 292 37 289 L37 209 Z " />
<glyph glyph-name="bar" unicode="&#x7c;" horiz-adv-x="672" d="M302 -194 L371 -194 L371 736 L302 736 L302 -194 Z " />
<glyph glyph-name="braceright" unicode="&#x7d;" horiz-adv-x="351" d="M32 718 L32 642 L47 642 C113 642 131 627 131 541 L131 469 C131 335 155 286 233 249 C149 214 131 145 131 28 L131 -43 C131 -129 113 -144 47 -144 L32 -144 L32 -220 L59 -220 C86 -220 112 -221 140 -208 C192 -184 213 -130 213 -43 C213 108 207 206 315 209 L315 289 C207 292 213 390 213 540 C213 613 199 663 162 692 C129 718 95 718 59 718 L32 718 Z " />
<glyph glyph-name="asciitilde" unicode="&#x7e;" horiz-adv-x="606" d="M55 310 C104 339 144 361 183 361 C245 361 342 284 428 284 C468 284 507 305 551 330 L551 409 C498 377 463 354 427 354 C362 354 264 435 179 435 C136 435 98 413 55 388 L55 310 Z " />
<glyph glyph-name="uni00A0" unicode="&#xa0;" horiz-adv-x="277" d="" />
<glyph glyph-name="exclamdown" unicode="&#xa1;" horiz-adv-x="295" d="M183 -208 L183 349 L114 349 L114 -208 L183 -208 Z M147 543 C113 543 87 514 87 481 C87 447 114 421 147 421 C179 421 207 447 207 481 C207 515 180 543 147 543 L147 543 Z " />
<glyph glyph-name="cent" unicode="&#xa2;" horiz-adv-x="554" d="M404 529 C377 539 348 545 315 545 C160 545 50 420 50 261 C50 167 85 99 152 39 L78 -109 L135 -139 L209 5 C236 -4 270 -15 311 -15 C381 -15 453 15 504 61 L460 112 C412 74 365 51 310 51 C282 51 260 58 240 66 L432 439 C457 423 469 412 479 402 L520 454 C497 478 479 490 464 500 L528 625 L469 654 L404 529 Z M184 102 C141 142 120 193 120 265 C120 399 209 479 314 479 C339 479 358 474 373 469 L184 102 Z " />
<glyph glyph-name="sterling" unicode="&#xa3;" horiz-adv-x="554" d="M130 -18 C180 -18 219 8 246 60 C303 11 368 -18 412 -18 C484 -18 525 63 525 159 L525 168 L456 168 C452 93 438 55 404 55 C381 55 323 84 270 129 C280 166 280 195 280 220 C280 288 269 325 262 349 L402 349 L402 412 L246 412 L224 483 C218 501 207 531 207 572 C207 636 256 670 316 670 C380 670 415 623 417 549 L483 549 C473 674 409 736 314 736 C214 736 137 663 137 575 C137 525 156 473 173 412 L49 412 L49 349 L188 349 C202 309 210 262 210 221 C210 203 208 183 207 168 C189 177 167 187 137 187 C80 187 28 139 28 74 C28 11 77 -18 130 -18 L130 -18 Z M188 101 C174 69 156 48 128 48 C109 48 95 63 95 84 C95 105 111 121 133 121 C155 121 172 111 188 101 L188 101 Z " />
<glyph glyph-name="currency" unicode="&#xa4;" horiz-adv-x="614" d="M527 174 C504 195 481 217 459 238 C484 272 499 311 499 354 C499 393 487 435 459 470 C481 492 504 513 527 535 C514 548 503 560 491 572 C468 550 445 528 423 506 C391 533 344 546 307 546 C273 546 230 536 189 506 C167 528 145 550 123 572 C110 560 99 548 87 535 C109 513 132 492 154 470 C129 440 115 398 115 354 C115 310 131 270 154 238 C132 217 109 195 87 174 C99 161 110 149 123 137 C145 159 167 181 189 203 C227 172 273 163 307 163 C351 163 392 178 424 203 C446 181 468 159 491 137 C503 149 514 161 527 174 L527 174 Z M448 355 C448 278 384 213 307 213 C229 213 166 279 166 355 C166 430 226 495 308 495 C377 495 448 438 448 355 L448 355 Z " />
<glyph glyph-name="yen" unicode="&#xa5;" horiz-adv-x="554" d="M276 424 L112 718 L30 718 L232 359 L60 359 L60 302 L240 302 L240 227 L60 227 L60 170 L240 170 L240 0 L312 0 L312 170 L493 170 L493 227 L312 227 L312 302 L493 302 L493 359 L319 359 L523 718 L442 718 L276 424 Z " />
<glyph glyph-name="brokenbar" unicode="&#xa6;" horiz-adv-x="672" d="M371 116 L302 116 L302 -194 L371 -194 L371 116 Z M371 736 L302 736 L302 426 L371 426 L371 736 Z " />
<glyph glyph-name="section" unicode="&#xa7;" horiz-adv-x="615" d="M104 595 C104 525 139 484 190 447 C105 422 64 360 64 301 C64 127 383 84 383 -56 C383 -107 335 -143 269 -143 C215 -143 170 -120 151 -67 L79 -67 C93 -146 168 -209 274 -209 C377 -209 453 -145 453 -55 C453 5 417 67 348 110 C440 128 487 193 487 254 C487 422 174 456 174 593 C174 644 218 681 286 681 C349 681 392 646 399 583 L470 583 C459 690 392 751 285 751 C177 751 104 689 104 595 L104 595 Z M247 410 C362 342 417 311 417 255 C417 203 370 159 290 149 C173 211 134 253 134 304 C134 361 180 400 247 410 L247 410 Z " />
<glyph glyph-name="dieresis" unicode="&#xa8;" horiz-adv-x="369" d="M85 741 C54 741 28 715 28 684 C28 653 54 628 85 628 C116 628 141 653 141 684 C141 715 116 741 85 741 L85 741 Z M284 741 C253 741 227 715 227 684 C227 653 253 628 284 628 C315 628 340 653 340 684 C340 715 315 741 284 741 L284 741 Z " />
<glyph glyph-name="copyright" unicode="&#xa9;" horiz-adv-x="747" d="M489 325 C478 248 433 211 376 211 C297 211 249 268 249 373 C249 471 297 532 378 532 C442 532 476 504 489 450 L552 450 C543 542 475 594 376 594 C265 594 183 509 183 378 C183 232 263 159 371 159 C474 159 540 225 552 325 L489 325 Z M738 373 C738 576 574 736 374 736 C173 736 9 575 9 373 C9 172 174 11 374 11 C574 11 738 171 738 373 L738 373 Z M687 373 C687 199 546 59 374 59 C201 59 59 199 59 373 C59 547 200 688 374 688 C547 688 687 547 687 373 L687 373 Z " />
<glyph glyph-name="ordfeminine" unicode="&#xaa;" horiz-adv-x="369" d="M269 728 L269 680 C242 717 209 736 169 736 C91 736 28 659 28 563 C28 466 90 388 168 388 C207 388 243 408 269 442 L269 396 L325 396 L325 728 L269 728 Z M178 684 C230 684 272 631 272 560 C272 483 225 440 178 440 C126 440 85 494 85 561 C85 628 125 684 178 684 L178 684 Z " />
<glyph glyph-name="guillemotleft" unicode="&#xab;" horiz-adv-x="425" d="M119 531 L10 265 L119 0 L191 0 L82 265 L191 531 L119 531 Z M342 531 L233 265 L342 0 L414 0 L305 265 L414 531 L342 531 Z " />
<glyph glyph-name="logicalnot" unicode="&#xac;" horiz-adv-x="606" d="M56 500 L56 433 L483 433 L483 218 L551 218 L551 500 L56 500 Z " />
<glyph glyph-name="uni00AD" unicode="&#xad;" horiz-adv-x="332" d="M32 240 L301 240 L301 300 L32 300 L32 240 Z " />
<glyph glyph-name="registered" unicode="&#xae;" horiz-adv-x="747" d="M221 165 L289 165 L289 340 L410 340 C461 340 473 323 476 278 L479 227 C480 212 482 192 489 165 L563 165 C556 177 541 192 541 232 L541 279 C541 336 530 356 493 374 C523 394 546 412 546 470 C546 520 518 562 473 577 C453 584 425 584 397 584 L221 584 L221 165 Z M395 524 C440 524 479 519 479 462 C479 419 455 400 407 400 L289 400 L289 524 L395 524 Z M738 372 C738 570 577 736 374 736 C167 736 9 568 9 372 C9 169 173 9 374 9 C571 9 738 168 738 372 L738 372 Z M687 372 C687 196 544 57 374 57 C204 57 59 194 59 372 C59 545 199 688 374 688 C549 688 687 542 687 372 L687 372 Z " />
<glyph glyph-name="macron" unicode="&#xaf;" horiz-adv-x="485" d="M74 663 L411 663 L411 723 L74 723 L74 663 Z " />
<glyph glyph-name="degree" unicode="&#xb0;" horiz-adv-x="400" d="M369 569 C369 667 290 736 201 736 C117 736 32 673 32 564 C32 479 105 400 201 400 C288 400 369 469 369 569 L369 569 Z M311 567 C311 509 268 452 198 452 C142 452 90 506 90 565 C90 636 143 684 200 684 C265 684 311 632 311 567 L311 567 Z " />
<glyph glyph-name="plusminus" unicode="&#xb1;" horiz-adv-x="606" d="M57 79 L57 12 L551 12 L551 79 L57 79 Z M57 446 L57 379 L271 379 L271 167 L339 167 L339 379 L551 379 L551 446 L339 446 L339 658 L271 658 L271 446 L57 446 Z " />
<glyph glyph-name="twosuperior" unicode="&#xb2;" horiz-adv-x="332" d="M3 358 L314 358 L314 406 L129 406 L222 490 C274 537 308 572 308 623 C308 685 253 736 171 736 C91 736 25 686 24 602 L76 602 C81 660 117 688 169 688 C218 688 255 658 255 622 C255 586 226 559 178 516 L3 358 Z " />
<glyph glyph-name="threesuperior" unicode="&#xb3;" horiz-adv-x="332" d="M234 638 C234 607 201 588 135 585 L135 539 C213 536 259 515 259 468 C259 431 222 397 163 397 C107 397 81 423 69 467 L16 467 C31 388 84 349 163 349 C257 349 313 410 313 471 C313 510 290 545 246 566 C274 585 290 609 290 638 C290 691 236 736 162 736 C96 736 48 702 30 631 L85 631 C100 665 119 688 162 688 C205 688 234 664 234 638 L234 638 Z " />
<glyph glyph-name="acute" unicode="&#xb4;" horiz-adv-x="375" d="M114 630 L181 630 L326 781 L221 781 L114 630 Z " />
<glyph glyph-name="mu" unicode="&#xb5;" horiz-adv-x="608" d="M453 0 L521 0 L521 531 L453 531 L453 245 C453 218 453 202 447 176 C431 107 374 62 307 62 C248 62 194 95 170 145 C159 169 157 201 157 238 L157 531 L89 531 L89 -194 L157 -194 L157 56 C194 11 241 -12 305 -12 C372 -12 417 13 453 58 L453 0 Z " />
<glyph glyph-name="paragraph" unicode="&#xb6;" horiz-adv-x="564" d="M294 -113 L294 702 L400 702 L400 -113 L458 -113 L458 702 L499 702 L499 739 L249 739 C109 739 46 653 46 540 C46 415 132 345 211 345 L236 345 L236 -113 L294 -113 Z " />
<glyph glyph-name="periodcentered" unicode="&#xb7;" horiz-adv-x="277" d="M138 421 C105 421 78 392 78 359 C78 326 104 299 138 299 C171 299 198 325 198 359 C198 393 170 421 138 421 L138 421 Z " />
<glyph glyph-name="cedilla" unicode="&#xb8;" horiz-adv-x="324" d="M139 -99 C148 -97 163 -94 173 -94 C191 -94 203 -103 203 -115 C203 -136 179 -147 137 -147 C117 -147 97 -143 79 -137 L68 -171 C94 -181 122 -186 149 -186 C219 -186 261 -152 261 -108 C261 -75 234 -56 204 -56 C197 -56 194 -57 187 -58 L195 0 L152 0 L139 -99 Z " />
<glyph glyph-name="onesuperior" unicode="&#xb9;" horiz-adv-x="332" d="M74 679 L147 679 L147 358 L201 358 L201 727 L109 727 L74 679 Z " />
<glyph glyph-name="ordmasculine" unicode="&#xba;" horiz-adv-x="369" d="M184 736 C94 736 27 657 27 561 C27 466 93 388 184 388 C274 388 342 466 342 561 C342 657 274 736 184 736 L184 736 Z M185 684 C238 684 285 629 285 560 C285 493 242 440 185 440 C128 440 84 493 84 560 C84 629 132 684 185 684 L185 684 Z " />
<glyph glyph-name="guillemotright" unicode="&#xbb;" horiz-adv-x="425" d="M306 0 L414 266 L306 531 L233 531 L342 266 L233 0 L306 0 Z M82 0 L191 266 L82 531 L10 531 L119 266 L10 0 L82 0 Z " />
<glyph glyph-name="onequarter" unicode="&#xbc;" horiz-adv-x="831" d="M56 679 L129 679 L129 358 L183 358 L183 727 L91 727 L56 679 Z M199 -18 L650 736 L596 736 L145 -18 L199 -18 Z M478 83 L689 83 L689 0 L743 0 L743 83 L794 83 L794 131 L743 131 L743 388 L478 83 Z M584 131 L689 251 L689 131 L584 131 Z " />
<glyph glyph-name="onehalf" unicode="&#xbd;" horiz-adv-x="831" d="M51 679 L124 679 L124 358 L178 358 L178 727 L86 727 L51 679 Z M173 -18 L624 736 L570 736 L119 -18 L173 -18 Z M478 0 L789 0 L789 48 L605 48 L697 132 C749 179 783 213 783 264 C783 326 728 379 647 379 C567 379 501 328 500 244 L551 244 C556 302 592 331 644 331 C693 331 730 301 730 264 C730 228 701 202 653 158 L478 0 Z " />
<glyph glyph-name="threequarters" unicode="&#xbe;" horiz-adv-x="831" d="M252 638 C252 607 219 588 153 585 L153 539 C231 536 277 515 277 468 C277 431 240 397 181 397 C125 397 99 423 87 467 L34 467 C49 388 102 349 181 349 C275 349 331 410 331 471 C331 510 308 545 264 566 C292 585 308 609 308 638 C308 691 254 736 180 736 C114 736 66 702 48 631 L103 631 C118 665 137 688 180 688 C223 688 252 664 252 638 L252 638 Z M252 -18 L704 736 L649 736 L199 -18 L252 -18 Z M508 83 L719 83 L719 0 L773 0 L773 83 L825 83 L825 131 L773 131 L773 388 L508 83 Z M614 131 L719 251 L719 131 L614 131 Z " />
<glyph glyph-name="questiondown" unicode="&#xbf;" horiz-adv-x="591" d="M186 201 C193 270 224 306 292 306 C355 306 391 268 391 232 C391 197 364 174 312 153 C184 102 90 68 90 -40 C90 -132 163 -208 294 -208 C420 -208 507 -131 508 5 L437 5 C434 -93 377 -138 293 -138 C217 -138 160 -98 160 -38 C160 28 223 45 357 100 C427 128 466 168 466 231 C466 312 396 372 292 372 C191 372 119 315 114 201 L186 201 Z M295 543 C262 543 235 515 235 481 C235 447 263 421 295 421 C327 421 355 447 355 481 C355 515 328 543 295 543 L295 543 Z " />
<glyph glyph-name="Agrave" unicode="&#xc0;" horiz-adv-x="740" d="M364 718 L24 0 L104 0 L216 236 L526 236 L639 0 L716 0 L381 718 L364 718 Z M494 306 L248 306 L372 566 L494 306 Z M235 931 L379 780 L447 780 L340 931 L235 931 Z " />
<glyph glyph-name="Aacute" unicode="&#xc1;" horiz-adv-x="740" d="M364 718 L24 0 L104 0 L216 236 L526 236 L639 0 L716 0 L381 718 L364 718 Z M494 306 L248 306 L372 566 L494 306 Z M296 780 L363 780 L508 931 L403 931 L296 780 Z " />
<glyph glyph-name="Acircumflex" unicode="&#xc2;" horiz-adv-x="740" d="M364 718 L24 0 L104 0 L216 236 L526 236 L639 0 L716 0 L381 718 L364 718 Z M494 306 L248 306 L372 566 L494 306 Z M193 778 L284 778 L373 852 L459 778 L548 778 L406 903 L338 903 L193 778 Z " />
<glyph glyph-name="Atilde" unicode="&#xc3;" horiz-adv-x="740" d="M364 718 L24 0 L104 0 L216 236 L526 236 L639 0 L716 0 L381 718 L364 718 Z M494 306 L248 306 L372 566 L494 306 Z M441 854 C396 854 357 891 301 891 C258 891 221 876 191 844 L223 794 C247 811 268 829 300 829 C346 829 375 788 439 788 C486 788 516 807 549 831 L515 878 C492 865 468 854 441 854 L441 854 Z " />
<glyph glyph-name="Adieresis" unicode="&#xc4;" horiz-adv-x="740" d="M364 718 L24 0 L104 0 L216 236 L526 236 L639 0 L716 0 L381 718 L364 718 Z M494 306 L248 306 L372 566 L494 306 Z M270 891 C239 891 213 865 213 834 C213 803 239 778 270 778 C301 778 326 803 326 834 C326 865 301 891 270 891 L270 891 Z M469 891 C438 891 412 865 412 834 C412 803 438 778 469 778 C500 778 525 803 525 834 C525 865 500 891 469 891 L469 891 Z " />
<glyph glyph-name="Aring" unicode="&#xc5;" horiz-adv-x="740" d="M364 718 L24 0 L104 0 L216 236 L526 236 L639 0 L716 0 L381 718 L364 718 Z M494 306 L248 306 L372 566 L494 306 Z M371 970 C314 970 269 925 269 869 C269 813 315 767 371 767 C427 767 472 813 472 869 C472 926 427 970 371 970 L371 970 Z M371 928 C403 928 431 902 430 869 C430 837 404 810 371 810 C340 810 312 835 312 869 C312 902 337 929 371 928 L371 928 Z " />
<glyph glyph-name="AE" unicode="&#xc6;" horiz-adv-x="992" d="M237 236 L499 236 L499 0 L909 0 L909 70 L571 70 L571 354 L909 354 L909 424 L571 424 L571 648 L909 648 L909 718 L465 718 L1 0 L85 0 L237 236 Z M499 303 L283 303 L499 635 L499 303 Z " />
<glyph glyph-name="Ccedilla" unicode="&#xc7;" horiz-adv-x="813" d="M756 585 C685 684 574 736 442 736 C219 736 55 575 55 363 C55 152 202 -17 442 -17 C573 -17 682 32 756 125 L699 168 C632 90 547 49 447 49 C266 49 130 179 130 357 C130 540 273 666 443 666 C546 666 636 625 699 542 L756 585 Z M383 -99 C392 -97 407 -94 417 -94 C435 -94 447 -103 447 -115 C447 -136 423 -147 381 -147 C361 -147 341 -143 323 -137 L312 -171 C338 -181 366 -186 393 -186 C463 -186 505 -152 505 -108 C505 -75 478 -56 448 -56 C441 -56 438 -57 431 -58 L439 0 L396 0 L383 -99 Z " />
<glyph glyph-name="Egrave" unicode="&#xc8;" horiz-adv-x="536" d="M88 0 L498 0 L498 70 L160 70 L160 353 L498 353 L498 423 L160 423 L160 648 L498 648 L498 718 L88 718 L88 0 Z M153 931 L297 780 L365 780 L258 931 L153 931 Z " />
<glyph glyph-name="Eacute" unicode="&#xc9;" horiz-adv-x="536" d="M88 0 L498 0 L498 70 L160 70 L160 353 L498 353 L498 423 L160 423 L160 648 L498 648 L498 718 L88 718 L88 0 Z M225 780 L292 780 L437 931 L332 931 L225 780 Z " />
<glyph glyph-name="Ecircumflex" unicode="&#xca;" horiz-adv-x="536" d="M88 0 L498 0 L498 70 L160 70 L160 353 L498 353 L498 423 L160 423 L160 648 L498 648 L498 718 L88 718 L88 0 Z M121 778 L212 778 L301 852 L387 778 L476 778 L334 903 L266 903 L121 778 Z " />
<glyph glyph-name="Edieresis" unicode="&#xcb;" horiz-adv-x="536" d="M88 0 L498 0 L498 70 L160 70 L160 353 L498 353 L498 423 L160 423 L160 648 L498 648 L498 718 L88 718 L88 0 Z M199 891 C168 891 142 865 142 834 C142 803 168 778 199 778 C230 778 255 803 255 834 C255 865 230 891 199 891 L199 891 Z M398 891 C367 891 341 865 341 834 C341 803 367 778 398 778 C429 778 454 803 454 834 C454 865 429 891 398 891 L398 891 Z " />
<glyph glyph-name="Igrave" unicode="&#xcc;" horiz-adv-x="226" d="M77 0 L149 0 L149 718 L77 718 L77 0 Z M-21 931 L123 780 L191 780 L84 931 L-21 931 Z " />
<glyph glyph-name="Iacute" unicode="&#xcd;" horiz-adv-x="226" d="M77 0 L149 0 L149 718 L77 718 L77 0 Z M41 780 L108 780 L253 931 L148 931 L41 780 Z " />
<glyph glyph-name="Icircumflex" unicode="&#xce;" horiz-adv-x="226" d="M77 0 L149 0 L149 718 L77 718 L77 0 Z M-63 778 L28 778 L117 852 L203 778 L292 778 L150 903 L82 903 L-63 778 Z " />
<glyph glyph-name="Idieresis" unicode="&#xcf;" horiz-adv-x="226" d="M77 0 L149 0 L149 718 L77 718 L77 0 Z M15 891 C-16 891 -42 865 -42 834 C-42 803 -16 778 15 778 C46 778 71 803 71 834 C71 865 46 891 15 891 L15 891 Z M214 891 C183 891 157 865 157 834 C157 803 183 778 214 778 C245 778 270 803 270 834 C270 865 245 891 214 891 L214 891 Z " />
<glyph glyph-name="Eth" unicode="&#xd0;" horiz-adv-x="790" d="M105 0 L385 0 C616 0 740 147 740 351 C740 508 663 633 534 685 C463 714 390 718 311 718 L105 718 L105 393 L17 393 L17 326 L105 326 L105 0 Z M362 326 L362 393 L173 393 L173 648 L278 648 C434 648 537 628 606 540 C646 488 665 424 665 350 C665 275 645 210 603 160 C538 82 449 70 312 70 L173 70 L173 326 L362 326 Z " />
<glyph glyph-name="Ntilde" unicode="&#xd1;" horiz-adv-x="740" d="M161 0 L161 543 L636 0 L652 0 L652 718 L580 718 L580 168 L104 718 L89 718 L89 0 L161 0 Z M441 854 C396 854 357 891 301 891 C258 891 221 876 191 844 L223 794 C247 811 268 829 300 829 C346 829 375 788 439 788 C486 788 516 807 549 831 L515 878 C492 865 468 854 441 854 L441 854 Z " />
<glyph glyph-name="Ograve" unicode="&#xd2;" horiz-adv-x="869" d="M429 736 C222 736 56 570 56 356 C56 155 214 -18 435 -18 C648 -18 813 148 813 359 C813 573 647 736 429 736 L429 736 Z M433 666 C592 666 738 542 738 360 C738 180 601 52 433 52 C271 52 131 179 131 356 C131 540 275 666 433 666 L433 666 Z M299 931 L443 780 L511 780 L404 931 L299 931 Z " />
<glyph glyph-name="Oacute" unicode="&#xd3;" horiz-adv-x="869" d="M429 736 C222 736 56 570 56 356 C56 155 214 -18 435 -18 C648 -18 813 148 813 359 C813 573 647 736 429 736 L429 736 Z M433 666 C592 666 738 542 738 360 C738 180 601 52 433 52 C271 52 131 179 131 356 C131 540 275 666 433 666 L433 666 Z M361 780 L428 780 L573 931 L468 931 L361 780 Z " />
<glyph glyph-name="Ocircumflex" unicode="&#xd4;" horiz-adv-x="869" d="M429 736 C222 736 56 570 56 356 C56 155 214 -18 435 -18 C648 -18 813 148 813 359 C813 573 647 736 429 736 L429 736 Z M433 666 C592 666 738 542 738 360 C738 180 601 52 433 52 C271 52 131 179 131 356 C131 540 275 666 433 666 L433 666 Z M257 778 L348 778 L437 852 L523 778 L612 778 L470 903 L402 903 L257 778 Z " />
<glyph glyph-name="Otilde" unicode="&#xd5;" horiz-adv-x="869" d="M429 736 C222 736 56 570 56 356 C56 155 214 -18 435 -18 C648 -18 813 148 813 359 C813 573 647 736 429 736 L429 736 Z M433 666 C592 666 738 542 738 360 C738 180 601 52 433 52 C271 52 131 179 131 356 C131 540 275 666 433 666 L433 666 Z M505 854 C460 854 421 891 365 891 C322 891 285 876 255 844 L287 794 C311 811 332 829 364 829 C410 829 439 788 503 788 C550 788 580 807 613 831 L579 878 C556 865 532 854 505 854 L505 854 Z " />
<glyph glyph-name="Odieresis" unicode="&#xd6;" horiz-adv-x="869" d="M429 736 C222 736 56 570 56 356 C56 155 214 -18 435 -18 C648 -18 813 148 813 359 C813 573 647 736 429 736 L429 736 Z M433 666 C592 666 738 542 738 360 C738 180 601 52 433 52 C271 52 131 179 131 356 C131 540 275 666 433 666 L433 666 Z M335 891 C304 891 278 865 278 834 C278 803 304 778 335 778 C366 778 391 803 391 834 C391 865 366 891 335 891 L335 891 Z M534 891 C503 891 477 865 477 834 C477 803 503 778 534 778 C565 778 590 803 590 834 C590 865 565 891 534 891 L534 891 Z " />
<glyph glyph-name="multiply" unicode="&#xd7;" horiz-adv-x="606" d="M510 521 L465 566 L303 404 L141 566 L96 521 L258 359 L96 197 L141 152 L303 314 L465 152 L510 197 L348 359 L510 521 Z " />
<glyph glyph-name="Oslash" unicode="&#xd8;" horiz-adv-x="868" d="M784 707 L733 749 L662 664 C593 713 518 736 434 736 C217 736 56 566 56 356 C56 253 96 158 170 87 L90 -8 L142 -50 L222 44 C286 1 355 -18 435 -18 C649 -18 813 149 813 360 C813 463 774 555 710 620 L784 707 Z M662 563 C712 507 738 439 738 360 C738 180 600 52 433 52 C373 52 319 68 269 100 L662 563 Z M217 142 C159 202 131 271 131 356 C131 540 275 666 433 666 C496 666 560 646 613 608 L217 142 Z " />
<glyph glyph-name="Ugrave" unicode="&#xd9;" horiz-adv-x="655" d="M494 262 C494 206 494 156 456 109 C425 70 382 52 328 52 C274 52 231 70 200 109 C162 156 162 206 162 262 L162 718 L90 718 L90 251 C90 82 181 -18 328 -18 C475 -18 566 82 566 251 L566 718 L494 718 L494 262 Z M193 931 L337 780 L405 780 L298 931 L193 931 Z " />
<glyph glyph-name="Uacute" unicode="&#xda;" horiz-adv-x="655" d="M494 262 C494 206 494 156 456 109 C425 70 382 52 328 52 C274 52 231 70 200 109 C162 156 162 206 162 262 L162 718 L90 718 L90 251 C90 82 181 -18 328 -18 C475 -18 566 82 566 251 L566 718 L494 718 L494 262 Z M254 780 L321 780 L466 931 L361 931 L254 780 Z " />
<glyph glyph-name="Ucircumflex" unicode="&#xdb;" horiz-adv-x="655" d="M494 262 C494 206 494 156 456 109 C425 70 382 52 328 52 C274 52 231 70 200 109 C162 156 162 206 162 262 L162 718 L90 718 L90 251 C90 82 181 -18 328 -18 C475 -18 566 82 566 251 L566 718 L494 718 L494 262 Z M151 778 L242 778 L331 852 L417 778 L506 778 L364 903 L296 903 L151 778 Z " />
<glyph glyph-name="Udieresis" unicode="&#xdc;" horiz-adv-x="655" d="M494 262 C494 206 494 156 456 109 C425 70 382 52 328 52 C274 52 231 70 200 109 C162 156 162 206 162 262 L162 718 L90 718 L90 251 C90 82 181 -18 328 -18 C475 -18 566 82 566 251 L566 718 L494 718 L494 262 Z M228 891 C197 891 171 865 171 834 C171 803 197 778 228 778 C259 778 284 803 284 834 C284 865 259 891 228 891 L228 891 Z M427 891 C396 891 370 865 370 834 C370 803 396 778 427 778 C458 778 483 803 483 834 C483 865 458 891 427 891 L427 891 Z " />
<glyph glyph-name="Yacute" unicode="&#xdd;" horiz-adv-x="592" d="M262 0 L334 0 L334 343 L562 718 L479 718 L298 422 L114 718 L31 718 L262 343 L262 0 Z M222 780 L289 780 L434 931 L329 931 L222 780 Z " />
<glyph glyph-name="Thorn" unicode="&#xde;" horiz-adv-x="592" d="M87 0 L159 0 L159 166 L230 166 C329 166 403 170 454 202 C505 234 537 291 537 359 C537 440 492 504 419 533 C390 544 325 551 230 551 L159 551 L159 718 L87 718 L87 0 Z M286 481 C342 481 385 477 417 453 C444 432 462 396 462 359 C462 323 445 287 420 266 C388 240 340 236 278 236 C241 236 200 236 159 237 L159 481 L286 481 Z " />
<glyph glyph-name="germandbls" unicode="&#xdf;" horiz-adv-x="554" d="M242 447 L242 371 C372 367 434 295 434 201 C434 110 370 52 289 52 C255 52 226 62 198 75 L198 10 C232 -10 260 -14 299 -14 C425 -14 504 81 504 199 C504 274 471 336 412 376 C374 402 345 405 318 409 C424 424 477 493 477 574 C477 675 401 750 285 750 C204 750 141 714 105 652 C85 617 80 566 80 499 L80 0 L148 0 L148 491 C148 514 149 542 151 565 C157 632 216 684 287 684 C353 684 407 638 407 570 C407 503 349 447 257 447 L242 447 Z " />
<glyph glyph-name="agrave" unicode="&#xe0;" horiz-adv-x="683" d="M538 434 C485 508 412 545 326 545 C172 545 52 418 52 267 C52 116 169 -13 324 -13 C407 -13 480 21 538 91 L538 0 L605 0 L605 531 L538 531 L538 434 Z M332 479 C451 479 543 386 543 263 C543 131 440 49 331 49 C212 49 122 150 122 265 C122 379 210 479 332 479 L332 479 Z M207 781 L351 630 L419 630 L312 781 L207 781 Z " />
<glyph glyph-name="aacute" unicode="&#xe1;" horiz-adv-x="683" d="M538 434 C485 508 412 545 326 545 C172 545 52 418 52 267 C52 116 169 -13 324 -13 C407 -13 480 21 538 91 L538 0 L605 0 L605 531 L538 531 L538 434 Z M332 479 C451 479 543 386 543 263 C543 131 440 49 331 49 C212 49 122 150 122 265 C122 379 210 479 332 479 L332 479 Z M268 630 L335 630 L480 781 L375 781 L268 630 Z " />
<glyph glyph-name="acircumflex" unicode="&#xe2;" horiz-adv-x="683" d="M538 434 C485 508 412 545 326 545 C172 545 52 418 52 267 C52 116 169 -13 324 -13 C407 -13 480 21 538 91 L538 0 L605 0 L605 531 L538 531 L538 434 Z M332 479 C451 479 543 386 543 263 C543 131 440 49 331 49 C212 49 122 150 122 265 C122 379 210 479 332 479 L332 479 Z M165 628 L256 628 L345 702 L431 628 L520 628 L378 753 L310 753 L165 628 Z " />
<glyph glyph-name="atilde" unicode="&#xe3;" horiz-adv-x="683" d="M538 434 C485 508 412 545 326 545 C172 545 52 418 52 267 C52 116 169 -13 324 -13 C407 -13 480 21 538 91 L538 0 L605 0 L605 531 L538 531 L538 434 Z M332 479 C451 479 543 386 543 263 C543 131 440 49 331 49 C212 49 122 150 122 265 C122 379 210 479 332 479 L332 479 Z M412 704 C367 704 328 741 272 741 C229 741 192 726 162 694 L194 644 C218 661 239 679 271 679 C317 679 346 638 410 638 C457 638 487 657 520 681 L486 728 C463 715 439 704 412 704 L412 704 Z " />
<glyph glyph-name="adieresis" unicode="&#xe4;" horiz-adv-x="683" d="M538 434 C485 508 412 545 326 545 C172 545 52 418 52 267 C52 116 169 -13 324 -13 C407 -13 480 21 538 91 L538 0 L605 0 L605 531 L538 531 L538 434 Z M332 479 C451 479 543 386 543 263 C543 131 440 49 331 49 C212 49 122 150 122 265 C122 379 210 479 332 479 L332 479 Z M242 741 C211 741 185 715 185 684 C185 653 211 628 242 628 C273 628 298 653 298 684 C298 715 273 741 242 741 L242 741 Z M441 741 C410 741 384 715 384 684 C384 653 410 628 441 628 C472 628 497 653 497 684 C497 715 472 741 441 741 L441 741 Z " />
<glyph glyph-name="aring" unicode="&#xe5;" horiz-adv-x="683" d="M538 434 C485 508 412 545 326 545 C172 545 52 418 52 267 C52 116 169 -13 324 -13 C407 -13 480 21 538 91 L538 0 L605 0 L605 531 L538 531 L538 434 Z M332 479 C451 479 543 386 543 263 C543 131 440 49 331 49 C212 49 122 150 122 265 C122 379 210 479 332 479 L332 479 Z M343 820 C286 820 241 775 241 719 C241 663 287 617 343 617 C399 617 444 663 444 719 C444 776 399 820 343 820 L343 820 Z M343 778 C375 778 403 752 402 719 C402 687 376 660 343 660 C312 660 284 685 284 719 C284 752 309 779 343 778 L343 778 Z " />
<glyph glyph-name="ae" unicode="&#xe6;" horiz-adv-x="1157" d="M545 434 C486 505 422 545 330 545 C186 545 58 428 58 268 C58 110 182 -14 332 -14 C426 -14 487 26 545 98 L545 0 L607 0 L607 95 C661 24 727 -13 823 -13 C935 -13 1031 42 1080 145 L1022 174 C976 90 914 49 828 49 C705 49 622 146 619 259 L1097 259 L1097 271 C1097 424 980 545 821 545 C719 545 665 504 607 435 L607 531 L545 531 L545 434 Z M335 479 C449 479 547 401 547 265 C547 138 450 52 337 52 C220 52 128 142 128 265 C128 391 222 479 335 479 L335 479 Z M623 319 C650 430 740 479 824 479 C913 479 994 431 1022 319 L623 319 Z " />
<glyph glyph-name="ccedilla" unicode="&#xe7;" horiz-adv-x="647" d="M537 142 C487 80 423 49 346 49 C209 49 121 150 121 266 C121 380 210 479 345 479 C425 479 490 449 537 387 L592 421 C543 503 450 545 348 545 C173 545 51 417 51 261 C51 113 168 -13 343 -13 C450 -13 540 28 592 107 L537 142 Z M300 -99 C309 -97 324 -94 334 -94 C352 -94 364 -103 364 -115 C364 -136 340 -147 298 -147 C278 -147 258 -143 240 -137 L229 -171 C255 -181 283 -186 310 -186 C380 -186 422 -152 422 -108 C422 -75 395 -56 365 -56 C358 -56 355 -57 348 -58 L356 0 L313 0 L300 -99 Z " />
<glyph glyph-name="egrave" unicode="&#xe8;" horiz-adv-x="650" d="M599 260 C597 436 475 545 324 545 C158 545 51 409 51 264 C51 122 152 -13 328 -13 C444 -13 527 40 581 146 L524 176 C485 112 432 49 321 49 C207 49 124 138 121 260 L599 260 Z M128 320 C159 428 230 479 325 479 C417 479 496 430 524 320 L128 320 Z M190 781 L334 630 L402 630 L295 781 L190 781 Z " />
<glyph glyph-name="eacute" unicode="&#xe9;" horiz-adv-x="650" d="M599 260 C597 436 475 545 324 545 C158 545 51 409 51 264 C51 122 152 -13 328 -13 C444 -13 527 40 581 146 L524 176 C485 112 432 49 321 49 C207 49 124 138 121 260 L599 260 Z M128 320 C159 428 230 479 325 479 C417 479 496 430 524 320 L128 320 Z M251 630 L318 630 L463 781 L358 781 L251 630 Z " />
<glyph glyph-name="ecircumflex" unicode="&#xea;" horiz-adv-x="650" d="M599 260 C597 436 475 545 324 545 C158 545 51 409 51 264 C51 122 152 -13 328 -13 C444 -13 527 40 581 146 L524 176 C485 112 432 49 321 49 C207 49 124 138 121 260 L599 260 Z M128 320 C159 428 230 479 325 479 C417 479 496 430 524 320 L128 320 Z M148 628 L239 628 L328 702 L414 628 L503 628 L361 753 L293 753 L148 628 Z " />
<glyph glyph-name="edieresis" unicode="&#xeb;" horiz-adv-x="650" d="M599 260 C597 436 475 545 324 545 C158 545 51 409 51 264 C51 122 152 -13 328 -13 C444 -13 527 40 581 146 L524 176 C485 112 432 49 321 49 C207 49 124 138 121 260 L599 260 Z M128 320 C159 428 230 479 325 479 C417 479 496 430 524 320 L128 320 Z M226 741 C195 741 169 715 169 684 C169 653 195 628 226 628 C257 628 282 653 282 684 C282 715 257 741 226 741 L226 741 Z M425 741 C394 741 368 715 368 684 C368 653 394 628 425 628 C456 628 481 653 481 684 C481 715 456 741 425 741 L425 741 Z " />
<glyph glyph-name="igrave" unicode="&#xec;" horiz-adv-x="200" d="M67 0 L135 0 L135 531 L67 531 L67 0 Z M-34 781 L110 630 L178 630 L71 781 L-34 781 Z " />
<glyph glyph-name="iacute" unicode="&#xed;" horiz-adv-x="200" d="M67 0 L135 0 L135 531 L67 531 L67 0 Z M28 630 L95 630 L240 781 L135 781 L28 630 Z " />
<glyph glyph-name="icircumflex" unicode="&#xee;" horiz-adv-x="200" d="M67 0 L135 0 L135 531 L67 531 L67 0 Z M-76 628 L15 628 L104 702 L190 628 L279 628 L137 753 L69 753 L-76 628 Z " />
<glyph glyph-name="idieresis" unicode="&#xef;" horiz-adv-x="200" d="M67 0 L135 0 L135 531 L67 531 L67 0 Z M2 741 C-29 741 -55 715 -55 684 C-55 653 -29 628 2 628 C33 628 58 653 58 684 C58 715 33 741 2 741 L2 741 Z M201 741 C170 741 144 715 144 684 C144 653 170 628 201 628 C232 628 257 653 257 684 C257 715 232 741 201 741 L201 741 Z " />
<glyph glyph-name="eth" unicode="&#xf0;" horiz-adv-x="655" d="M206 636 L231 584 L337 628 C359 608 394 577 441 513 C410 528 373 544 319 544 C183 544 51 432 51 267 C51 108 174 -14 325 -14 C489 -14 605 114 605 277 C605 398 538 526 404 656 L461 679 L436 731 L356 698 C340 711 322 724 306 736 L210 736 C230 721 262 696 291 671 L206 636 Z M332 481 C447 481 535 394 535 267 C535 139 440 52 327 52 C217 52 121 140 121 269 C121 402 225 481 332 481 L332 481 Z " />
<glyph glyph-name="ntilde" unicode="&#xf1;" horiz-adv-x="610" d="M144 531 L76 531 L76 0 L144 0 L144 223 C144 307 150 359 190 411 C226 458 273 483 330 483 C433 483 472 414 472 289 L472 0 L540 0 L540 298 C540 465 459 545 343 545 C265 545 199 508 144 436 L144 531 Z M376 704 C331 704 292 741 236 741 C193 741 156 726 126 694 L158 644 C182 661 203 679 235 679 C281 679 310 638 374 638 C421 638 451 657 484 681 L450 728 C427 715 403 704 376 704 L376 704 Z " />
<glyph glyph-name="ograve" unicode="&#xf2;" horiz-adv-x="655" d="M328 545 C169 545 51 416 51 264 C51 113 168 -14 328 -14 C488 -14 605 113 605 264 C605 416 487 545 328 545 L328 545 Z M328 479 C441 479 535 381 535 263 C535 147 447 52 328 52 C208 52 121 147 121 263 C121 381 214 479 328 479 L328 479 Z M193 781 L337 630 L405 630 L298 781 L193 781 Z " />
<glyph glyph-name="oacute" unicode="&#xf3;" horiz-adv-x="655" d="M328 545 C169 545 51 416 51 264 C51 113 168 -14 328 -14 C488 -14 605 113 605 264 C605 416 487 545 328 545 L328 545 Z M328 479 C441 479 535 381 535 263 C535 147 447 52 328 52 C208 52 121 147 121 263 C121 381 214 479 328 479 L328 479 Z M254 630 L321 630 L466 781 L361 781 L254 630 Z " />
<glyph glyph-name="ocircumflex" unicode="&#xf4;" horiz-adv-x="655" d="M328 545 C169 545 51 416 51 264 C51 113 168 -14 328 -14 C488 -14 605 113 605 264 C605 416 487 545 328 545 L328 545 Z M328 479 C441 479 535 381 535 263 C535 147 447 52 328 52 C208 52 121 147 121 263 C121 381 214 479 328 479 L328 479 Z M151 628 L242 628 L331 702 L417 628 L506 628 L364 753 L296 753 L151 628 Z " />
<glyph glyph-name="otilde" unicode="&#xf5;" horiz-adv-x="655" d="M328 545 C169 545 51 416 51 264 C51 113 168 -14 328 -14 C488 -14 605 113 605 264 C605 416 487 545 328 545 L328 545 Z M328 479 C441 479 535 381 535 263 C535 147 447 52 328 52 C208 52 121 147 121 263 C121 381 214 479 328 479 L328 479 Z M398 704 C353 704 314 741 258 741 C215 741 178 726 148 694 L180 644 C204 661 225 679 257 679 C303 679 332 638 396 638 C443 638 473 657 506 681 L472 728 C449 715 425 704 398 704 L398 704 Z " />
<glyph glyph-name="odieresis" unicode="&#xf6;" horiz-adv-x="655" d="M328 545 C169 545 51 416 51 264 C51 113 168 -14 328 -14 C488 -14 605 113 605 264 C605 416 487 545 328 545 L328 545 Z M328 479 C441 479 535 381 535 263 C535 147 447 52 328 52 C208 52 121 147 121 263 C121 381 214 479 328 479 L328 479 Z M228 741 C197 741 171 715 171 684 C171 653 197 628 228 628 C259 628 284 653 284 684 C284 715 259 741 228 741 L228 741 Z M427 741 C396 741 370 715 370 684 C370 653 396 628 427 628 C458 628 483 653 483 684 C483 715 458 741 427 741 L427 741 Z " />
<glyph glyph-name="divide" unicode="&#xf7;" horiz-adv-x="606" d="M255 491 L353 491 L353 590 L255 590 L255 491 Z M255 128 L353 128 L353 228 L255 228 L255 128 Z M57 326 L551 326 L551 393 L57 393 L57 326 Z " />
<glyph glyph-name="oslash" unicode="&#xf8;" horiz-adv-x="653" d="M599 517 L555 553 L498 487 C450 525 390 545 326 545 C168 545 50 417 50 264 C50 187 80 116 136 61 L81 -5 L124 -40 L181 26 C225 -1 274 -14 327 -14 C487 -14 604 112 604 264 C604 331 581 395 539 446 L599 517 Z M492 392 C519 353 534 308 534 262 C534 146 447 52 327 52 C289 52 257 60 225 77 L492 392 Z M180 112 C143 150 120 207 120 263 C120 381 214 479 327 479 C372 479 416 462 453 433 L180 112 Z " />
<glyph glyph-name="ugrave" unicode="&#xf9;" horiz-adv-x="608" d="M462 272 C462 196 463 145 421 100 C393 71 350 53 301 53 C234 53 179 84 154 138 C139 170 139 216 139 272 L139 531 L67 531 L67 256 C67 77 149 -13 301 -13 C453 -13 534 77 534 256 L534 531 L462 531 L462 272 Z M169 781 L313 630 L381 630 L274 781 L169 781 Z " />
<glyph glyph-name="uacute" unicode="&#xfa;" horiz-adv-x="608" d="M462 272 C462 196 463 145 421 100 C393 71 350 53 301 53 C234 53 179 84 154 138 C139 170 139 216 139 272 L139 531 L67 531 L67 256 C67 77 149 -13 301 -13 C453 -13 534 77 534 256 L534 531 L462 531 L462 272 Z M231 630 L298 630 L443 781 L338 781 L231 630 Z " />
<glyph glyph-name="ucircumflex" unicode="&#xfb;" horiz-adv-x="608" d="M462 272 C462 196 463 145 421 100 C393 71 350 53 301 53 C234 53 179 84 154 138 C139 170 139 216 139 272 L139 531 L67 531 L67 256 C67 77 149 -13 301 -13 C453 -13 534 77 534 256 L534 531 L462 531 L462 272 Z M127 628 L218 628 L307 702 L393 628 L482 628 L340 753 L272 753 L127 628 Z " />
<glyph glyph-name="udieresis" unicode="&#xfc;" horiz-adv-x="608" d="M462 272 C462 196 463 145 421 100 C393 71 350 53 301 53 C234 53 179 84 154 138 C139 170 139 216 139 272 L139 531 L67 531 L67 256 C67 77 149 -13 301 -13 C453 -13 534 77 534 256 L534 531 L462 531 L462 272 Z M205 741 C174 741 148 715 148 684 C148 653 174 628 205 628 C236 628 261 653 261 684 C261 715 236 741 205 741 L205 741 Z M404 741 C373 741 347 715 347 684 C347 653 373 628 404 628 C435 628 460 653 460 684 C460 715 435 741 404 741 L404 741 Z " />
<glyph glyph-name="yacute" unicode="&#xfd;" horiz-adv-x="536" d="M237 40 L135 -194 L207 -194 L524 531 L451 531 L274 122 L91 531 L19 531 L237 40 Z M195 630 L262 630 L407 781 L302 781 L195 630 Z " />
<glyph glyph-name="thorn" unicode="&#xfe;" horiz-adv-x="682" d="M77 -194 L146 -194 L146 91 C204 21 275 -14 358 -14 C514 -14 631 116 631 267 C631 418 511 545 356 545 C271 545 199 508 146 434 L146 736 L77 736 L77 -194 Z M351 479 C473 479 561 379 561 265 C561 149 469 49 351 49 C242 49 140 131 140 263 C140 386 232 479 351 479 L351 479 Z " />
<glyph glyph-name="ydieresis" unicode="&#xff;" horiz-adv-x="536" d="M237 40 L135 -194 L207 -194 L524 531 L451 531 L274 122 L91 531 L19 531 L237 40 Z M169 741 C138 741 112 715 112 684 C112 653 138 628 169 628 C200 628 225 653 225 684 C225 715 200 741 169 741 L169 741 Z M368 741 C337 741 311 715 311 684 C311 653 337 628 368 628 C399 628 424 653 424 684 C424 715 399 741 368 741 L368 741 Z " />
<glyph glyph-name="dotlessi" unicode="&#x131;" horiz-adv-x="200" d="M67 0 L135 0 L135 531 L67 531 L67 0 Z " />
<glyph glyph-name="Lslash" unicode="&#x141;" horiz-adv-x="517" d="M215 718 L143 718 L143 358 L44 276 L44 191 L143 273 L143 0 L491 0 L491 70 L215 70 L215 333 L344 441 L344 527 L215 419 L215 718 Z " />
<glyph glyph-name="lslash" unicode="&#x142;" horiz-adv-x="300" d="M184 736 L116 736 L116 430 L26 372 L26 304 L116 362 L116 0 L184 0 L184 406 L282 469 L282 537 L184 474 L184 736 Z " />
<glyph glyph-name="OE" unicode="&#x152;" horiz-adv-x="1194" d="M743 0 L1153 0 L1153 70 L814 70 L814 354 L1153 354 L1153 424 L814 424 L814 648 L1153 648 L1153 718 L743 718 L743 579 C664 683 551 736 438 736 C226 736 57 570 57 356 C57 164 208 -18 437 -18 C583 -18 667 43 743 139 L743 0 Z M435 666 C591 666 744 541 744 360 C744 192 612 52 441 52 C265 52 132 192 132 361 C132 528 275 666 435 666 L435 666 Z " />
<glyph glyph-name="oe" unicode="&#x153;" horiz-adv-x="1138" d="M810 545 C699 545 628 494 571 404 C512 494 438 545 332 545 C190 545 55 433 55 268 C55 111 177 -15 332 -15 C430 -15 512 32 571 121 C617 56 676 -15 811 -15 C929 -15 1007 37 1066 146 L1008 176 C969 93 898 51 813 51 C706 51 615 118 606 259 L1082 259 C1082 262 1083 273 1083 276 C1083 416 970 545 810 545 L810 545 Z M329 479 C449 479 538 382 538 263 C538 136 442 51 334 51 C222 51 125 142 125 265 C125 383 215 479 329 479 L329 479 Z M612 319 C643 431 722 479 811 479 C903 479 980 426 1008 319 L612 319 Z " />
<glyph glyph-name="Scaron" unicode="&#x160;" horiz-adv-x="498" d="M421 619 C374 683 321 736 233 736 C136 736 59 667 59 568 C59 514 86 457 120 430 C283 298 357 253 357 174 C357 107 299 52 224 52 C169 52 117 92 74 171 L13 134 C66 37 131 -18 230 -18 C347 -18 432 74 432 175 C432 291 333 360 198 460 C157 491 134 532 134 571 C134 618 169 662 231 662 C290 662 324 625 363 574 L421 619 Z M428 903 L337 903 L247 829 L161 903 L73 903 L215 778 L283 778 L428 903 Z " />
<glyph glyph-name="scaron" unicode="&#x161;" horiz-adv-x="388" d="M26 62 C64 13 124 -14 183 -14 C279 -14 343 60 343 143 C343 239 275 266 153 337 C129 351 112 381 112 408 C112 448 148 479 192 479 C235 479 267 459 299 428 L343 473 C298 517 254 545 196 545 C115 545 50 488 50 404 C50 311 112 282 234 214 C260 200 278 171 278 140 C278 90 232 52 180 52 C140 52 103 73 69 111 L26 62 Z M373 753 L282 753 L192 679 L106 753 L18 753 L160 628 L228 628 L373 753 Z " />
<glyph glyph-name="Ydieresis" unicode="&#x178;" horiz-adv-x="592" d="M262 0 L334 0 L334 343 L562 718 L479 718 L298 422 L114 718 L31 718 L262 343 L262 0 Z M196 891 C165 891 139 865 139 834 C139 803 165 778 196 778 C227 778 252 803 252 834 C252 865 227 891 196 891 L196 891 Z M395 891 C364 891 338 865 338 834 C338 803 364 778 395 778 C426 778 451 803 451 834 C451 865 426 891 395 891 L395 891 Z " />
<glyph glyph-name="Zcaron" unicode="&#x17d;" horiz-adv-x="480" d="M329 648 L27 0 L423 0 L423 70 L138 70 L438 718 L59 718 L59 648 L329 648 Z M419 903 L328 903 L238 829 L152 903 L64 903 L206 778 L274 778 L419 903 Z " />
<glyph glyph-name="zcaron" unicode="&#x17e;" horiz-adv-x="425" d="M32 471 L305 471 L4 0 L413 0 L413 60 L122 60 L423 531 L32 531 L32 471 Z M391 753 L300 753 L210 679 L124 753 L36 753 L178 628 L246 628 L391 753 Z " />
<glyph glyph-name="florin" unicode="&#x192;" horiz-adv-x="554" d="M324 574 C332 632 340 689 384 689 C405 689 428 675 451 653 L460 718 C433 737 406 751 374 751 C325 751 286 707 280 678 C276 661 268 630 261 587 L237 431 L168 431 L160 371 L229 371 L180 35 C162 -90 133 -145 79 -145 C53 -145 39 -135 25 -124 L16 -184 C34 -196 55 -207 86 -207 C174 -207 219 -124 242 24 L295 371 L408 371 L416 431 L304 431 L324 574 Z " />
<glyph glyph-name="circumflex" unicode="&#x2c6;" horiz-adv-x="502" d="M74 628 L165 628 L254 702 L340 628 L429 628 L287 753 L219 753 L74 628 Z " />
<glyph glyph-name="caron" unicode="&#x2c7;" horiz-adv-x="502" d="M429 753 L338 753 L248 679 L162 753 L74 753 L216 628 L284 628 L429 753 Z " />
<glyph glyph-name="uni02C9" unicode="&#x2c9;" horiz-adv-x="485" d="M74 663 L411 663 L411 723 L74 723 L74 663 Z " />
<glyph glyph-name="breve" unicode="&#x2d8;" horiz-adv-x="453" d="M337 745 C308 706 279 694 228 694 C176 694 140 710 117 745 L53 745 C70 682 134 642 228 642 C328 642 385 688 399 745 L337 745 Z " />
<glyph glyph-name="dotaccent" unicode="&#x2d9;" horiz-adv-x="222" d="M111 741 C80 741 54 715 54 684 C54 653 80 628 111 628 C142 628 167 653 167 684 C167 715 142 741 111 741 L111 741 Z " />
<glyph glyph-name="ring" unicode="&#x2da;" horiz-adv-x="332" d="M167 820 C110 820 65 775 65 719 C65 663 111 617 167 617 C223 617 268 663 268 719 C268 776 223 820 167 820 L167 820 Z M167 778 C199 778 227 752 226 719 C226 687 200 660 167 660 C136 660 108 685 108 719 C108 752 133 779 167 778 L167 778 Z " />
<glyph glyph-name="ogonek" unicode="&#x2db;" horiz-adv-x="302" d="M251 -145 C242 -146 228 -148 217 -148 C165 -148 145 -120 145 -93 C145 -59 168 -31 204 0 L151 0 C113 -27 93 -65 93 -104 C93 -142 120 -191 204 -191 C217 -191 232 -190 246 -187 L251 -145 Z " />
<glyph glyph-name="tilde" unicode="&#x2dc;" horiz-adv-x="439" d="M290 704 C245 704 206 741 150 741 C107 741 70 726 40 694 L72 644 C96 661 117 679 149 679 C195 679 224 638 288 638 C335 638 365 657 398 681 L364 728 C341 715 317 704 290 704 L290 704 Z " />
<glyph glyph-name="hungarumlaut" unicode="&#x2dd;" horiz-adv-x="552" d="M126 630 L193 630 L338 781 L233 781 L126 630 Z M280 630 L348 630 L492 781 L387 781 L280 630 Z " />
<glyph glyph-name="uni03A9" unicode="&#x3a9;" horiz-adv-x="712" d="M661 0 L661 57 L503 57 C576 115 661 228 661 387 C661 578 551 712 359 712 C177 712 51 572 51 385 C51 210 143 108 208 57 L52 57 L52 0 L277 0 L277 57 C209 114 121 209 121 377 C121 538 217 653 359 653 C510 653 591 533 591 377 C591 204 498 110 436 57 L436 0 L661 0 Z " />
<glyph glyph-name="uni03BC" unicode="&#x3bc;" horiz-adv-x="608" d="M453 0 L521 0 L521 531 L453 531 L453 245 C453 218 453 202 447 176 C431 107 374 62 307 62 C248 62 194 95 170 145 C159 169 157 201 157 238 L157 531 L89 531 L89 -194 L157 -194 L157 56 C194 11 241 -12 305 -12 C372 -12 417 13 453 58 L453 0 Z " />
<glyph glyph-name="pi" unicode="&#x3c0;" horiz-adv-x="655" d="M597 54 C587 50 576 47 566 47 C519 47 502 79 502 128 L502 446 L610 446 L610 500 L184 500 C121 500 71 486 44 473 C51 456 58 440 64 423 C92 436 138 446 168 446 L168 135 C168 88 163 38 153 0 L221 0 C230 32 235 78 235 132 L235 446 L434 446 L434 122 C434 49 468 -7 550 -7 C574 -7 597 -2 611 6 L597 54 Z " />
<glyph glyph-name="endash" unicode="&#x2013;" horiz-adv-x="500" d="M-6 248 L506 248 L506 311 L-6 311 L-6 248 Z " />
<glyph glyph-name="emdash" unicode="&#x2014;" horiz-adv-x="1000" d="M-6 248 L1006 248 L1006 311 L-6 311 L-6 248 Z " />
<glyph glyph-name="quoteleft" unicode="&#x2018;" horiz-adv-x="351" d="M140 468 L228 468 L228 602 L185 602 C190 657 203 683 219 715 L182 736 C155 683 140 643 140 563 L140 468 Z " />
<glyph glyph-name="quoteright" unicode="&#x2019;" horiz-adv-x="351" d="M211 736 L123 736 L123 602 L166 602 C160 544 147 520 132 490 L170 468 C199 525 211 566 211 642 L211 736 Z " />
<glyph glyph-name="quotesinglbase" unicode="&#x201a;" horiz-adv-x="354" d="M213 134 L125 134 L125 0 L168 0 C162 -57 149 -82 134 -113 L172 -134 C201 -77 213 -36 213 40 L213 134 Z " />
<glyph glyph-name="quotedblleft" unicode="&#x201c;" horiz-adv-x="502" d="M100 468 L188 468 L188 602 L145 602 C150 657 163 683 179 715 L142 736 C115 683 100 643 100 563 L100 468 Z M318 468 L406 468 L406 602 L362 602 C368 660 382 685 397 715 L359 736 C333 684 318 644 318 563 L318 468 Z " />
<glyph glyph-name="quotedblright" unicode="&#x201d;" horiz-adv-x="484" d="M394 736 L306 736 L306 602 L348 602 C343 546 329 521 314 490 L352 468 C381 525 394 566 394 642 L394 736 Z M176 736 L88 736 L88 602 L131 602 C125 544 112 520 97 490 L135 468 C164 525 176 566 176 642 L176 736 Z " />
<glyph glyph-name="quotedblbase" unicode="&#x201e;" horiz-adv-x="502" d="M403 134 L315 134 L315 0 L357 0 C352 -56 338 -82 323 -113 L361 -134 C389 -78 403 -37 403 40 L403 134 Z M185 134 L97 134 L97 0 L140 0 C134 -58 121 -83 106 -113 L144 -134 C172 -78 185 -37 185 40 L185 134 Z " />
<glyph glyph-name="dagger" unicode="&#x2020;" horiz-adv-x="553" d="M253 513 L77 524 L77 451 L253 463 L239 -153 L314 -153 L300 463 L476 451 L476 524 L300 513 L312 736 L239 736 L253 513 Z " />
<glyph glyph-name="daggerdbl" unicode="&#x2021;" horiz-adv-x="553" d="M253 563 L78 575 L78 503 L253 515 L240 292 L253 71 L78 81 L78 8 L253 22 L240 -153 L313 -153 L301 22 L476 8 L476 81 L301 71 L313 292 L301 515 L476 503 L476 575 L301 563 L313 736 L240 736 L253 563 Z " />
<glyph glyph-name="bullet" unicode="&#x2022;" horiz-adv-x="606" d="M303 514 C220 514 153 447 153 364 C153 282 219 214 303 214 C387 214 453 282 453 364 C453 447 385 514 303 514 L303 514 Z " />
<glyph glyph-name="ellipsis" unicode="&#x2026;" horiz-adv-x="1000" d="M501 108 C468 108 441 80 441 47 C441 14 468 -14 501 -14 C534 -14 561 13 561 47 C561 81 533 108 501 108 L501 108 Z M167 108 C134 108 107 80 107 47 C107 14 133 -14 167 -14 C200 -14 227 13 227 47 C227 81 199 108 167 108 L167 108 Z M834 108 C802 108 774 81 774 47 C774 13 801 -14 834 -14 C867 -14 894 13 894 47 C894 81 867 108 834 108 L834 108 Z " />
<glyph glyph-name="perthousand" unicode="&#x2030;" horiz-adv-x="1174" d="M618 750 C568 736 497 714 389 714 C275 714 230 736 192 736 C109 736 24 669 24 566 C24 475 94 398 191 398 C295 398 362 483 362 567 C362 607 351 633 332 659 C336 659 347 658 351 658 C426 658 497 663 564 679 L88 -50 L153 -50 L676 750 L618 750 Z M193 674 C247 674 300 621 300 567 C300 496 247 460 193 460 C140 460 86 496 86 567 C86 626 134 674 193 674 L193 674 Z M416 148 C416 55 492 -21 585 -21 C670 -21 754 63 754 148 C754 261 670 317 585 317 C501 317 416 261 416 148 L416 148 Z M692 148 C692 89 644 42 585 42 C526 42 478 89 478 148 C478 224 525 255 574 255 C631 255 692 214 692 148 L692 148 Z M806 148 C806 55 882 -21 975 -21 C1060 -21 1144 63 1144 148 C1144 261 1060 317 975 317 C891 317 806 261 806 148 L806 148 Z M1082 148 C1082 89 1034 42 975 42 C916 42 868 89 868 148 C868 224 915 255 964 255 C1021 255 1082 214 1082 148 L1082 148 Z " />
<glyph glyph-name="guilsinglleft" unicode="&#x2039;" horiz-adv-x="251" d="M145 531 L36 265 L145 0 L217 0 L108 265 L217 531 L145 531 Z " />
<glyph glyph-name="guilsinglright" unicode="&#x203a;" horiz-adv-x="251" d="M106 0 L215 266 L106 531 L34 531 L143 266 L34 0 L106 0 Z " />
<glyph glyph-name="fraction" unicode="&#x2044;" horiz-adv-x="166" d="M-116 -18 L335 736 L281 736 L-170 -18 L-116 -18 Z " />
<glyph glyph-name="Euro" unicode="&#x20ac;" horiz-adv-x="554" d="M41 471 L23 404 L83 404 C82 387 81 373 81 363 C81 352 82 337 83 319 L40 319 L23 252 L95 252 C119 168 164 102 231 54 C297 7 376 -17 468 -17 C496 -17 520 -15 541 -11 L541 57 C517 52 494 49 473 49 C404 49 342 67 288 103 C234 139 195 188 173 252 L429 252 L447 319 L158 319 C157 334 156 347 156 357 C156 373 157 389 159 404 L470 404 L488 471 L176 471 C200 532 239 580 292 614 C345 649 404 666 469 666 C489 666 509 664 528 660 L546 729 C515 734 489 736 468 736 C380 736 303 713 235 665 C168 618 121 553 96 471 L41 471 Z " />
<glyph glyph-name="litre" unicode="&#x2113;" horiz-adv-x="494" d="M416 55 C407 68 397 80 388 93 C366 68 335 40 298 40 C261 40 234 66 234 131 L234 319 C243 329 258 349 268 361 C332 447 380 530 380 625 C380 668 356 728 286 728 C215 728 170 672 170 559 L170 324 C139 290 108 256 78 222 C88 210 99 199 109 187 C130 209 149 231 170 254 L170 133 C170 84 182 43 205 18 C224 -1 250 -13 285 -13 C346 -13 390 27 416 55 L416 55 Z M327 618 C327 558 298 488 256 424 C250 415 241 402 234 394 L234 559 C234 645 255 675 288 675 C316 675 327 647 327 618 L327 618 Z " />
<glyph glyph-name="trademark" unicode="&#x2122;" horiz-adv-x="1000" d="M844 739 L706 447 L576 739 L458 739 L458 318 L530 318 L530 665 L682 318 L730 318 L888 665 L888 318 L960 318 L960 739 L844 739 Z M6 739 L6 672 L155 672 L155 318 L227 318 L227 672 L376 672 L376 739 L6 739 Z " />
<glyph glyph-name="Omega" unicode="&#x2126;" horiz-adv-x="712" d="M661 0 L661 57 L503 57 C576 115 661 228 661 387 C661 578 551 712 359 712 C177 712 51 572 51 385 C51 210 143 108 208 57 L52 57 L52 0 L277 0 L277 57 C209 114 121 209 121 377 C121 538 217 653 359 653 C510 653 591 533 591 377 C591 204 498 110 436 57 L436 0 L661 0 Z " />
<glyph glyph-name="estimated" unicode="&#x212e;" horiz-adv-x="662" d="M621 295 C617 466 512 603 329 603 C149 603 40 466 40 295 C40 126 152 -12 328 -12 C452 -12 522 47 583 138 C570 145 558 153 546 160 C496 78 432 26 328 26 C264 26 210 49 166 92 L166 295 L621 295 Z M492 333 L166 333 L166 499 C209 544 265 566 328 566 C391 566 449 540 492 498 L492 333 Z " />
<glyph glyph-name="partialdiff" unicode="&#x2202;" horiz-adv-x="577" d="M527 490 C527 645 446 726 326 726 C277 726 227 709 203 694 C209 678 215 661 221 645 C250 662 287 672 318 672 C407 672 460 612 460 496 C460 467 458 444 456 423 L454 423 C434 462 388 499 316 499 C185 499 50 370 50 176 C50 63 120 -10 223 -10 C373 -10 464 151 501 296 C518 364 527 432 527 490 L527 490 Z M445 354 C409 167 326 44 225 44 C161 44 117 94 117 174 C117 326 213 446 320 446 C390 446 431 405 445 354 L445 354 Z " />
<glyph glyph-name="Delta" unicode="&#x2206;" horiz-adv-x="610" d="M587 0 L587 35 C507 257 426 478 346 700 L266 700 C185 478 104 257 22 35 L22 0 L587 0 Z M507 58 L100 58 C162 231 225 403 287 576 C293 595 299 616 302 630 L305 630 C310 615 313 598 321 575 C383 403 445 230 507 58 L507 58 Z " />
<glyph glyph-name="product" unicode="&#x220f;" horiz-adv-x="721" d="M633 -230 L633 700 L88 700 L88 -230 L156 -230 L156 641 L565 641 L565 -230 L633 -230 Z " />
<glyph glyph-name="summation" unicode="&#x2211;" horiz-adv-x="632" d="M604 -230 L604 -173 L123 -173 C229 -35 336 102 442 240 C343 375 243 509 143 643 L579 643 L579 700 L52 700 L52 664 C158 523 262 381 368 239 C254 92 141 -53 28 -200 L28 -230 L604 -230 Z " />
<glyph glyph-name="minus" unicode="&#x2212;" horiz-adv-x="606" d="M56 326 L550 326 L550 393 L56 393 L56 326 Z " />
<glyph glyph-name="uni2215" unicode="&#x2215;" horiz-adv-x="166" d="M-116 -18 L335 736 L281 736 L-170 -18 L-116 -18 Z " />
<glyph glyph-name="uni2219" unicode="&#x2219;" horiz-adv-x="277" d="M138 421 C105 421 78 392 78 359 C78 326 104 299 138 299 C171 299 198 325 198 359 C198 393 170 421 138 421 L138 421 Z " />
<glyph glyph-name="radical" unicode="&#x221a;" horiz-adv-x="515" d="M494 728 L440 728 C382 512 325 294 267 78 C221 189 176 300 130 411 C94 389 57 367 20 346 C28 332 35 318 43 304 C61 315 80 326 98 336 C146 220 193 104 240 -12 L296 -12 C363 235 428 481 494 728 L494 728 Z " />
<glyph glyph-name="infinity" unicode="&#x221e;" horiz-adv-x="785" d="M733 294 C733 389 665 451 571 451 C486 451 426 388 393 338 L391 338 C355 394 296 451 209 451 C113 451 51 384 51 290 C51 199 114 132 212 132 C285 132 348 182 391 246 L393 246 C431 184 494 132 575 132 C673 132 733 206 733 294 L733 294 Z M673 293 C673 236 642 185 569 185 C513 185 460 224 420 292 C460 354 506 399 570 399 C641 399 673 350 673 293 L673 293 Z M364 292 C327 234 276 184 213 184 C154 184 110 228 110 290 C110 348 142 399 213 399 C268 399 326 355 364 292 L364 292 Z " />
<glyph glyph-name="integral" unicode="&#x222b;" horiz-adv-x="492" d="M411 684 C416 701 421 719 426 736 C415 742 385 749 360 749 C266 749 212 687 212 589 L212 -69 C212 -135 183 -171 126 -171 C106 -171 91 -167 79 -162 C74 -180 70 -197 65 -215 C79 -221 110 -226 132 -226 C223 -226 279 -167 279 -66 L279 591 C279 656 308 693 365 693 C383 693 402 688 411 684 L411 684 Z " />
<glyph glyph-name="approxequal" unicode="&#x2248;" horiz-adv-x="606" d="M531 420 L486 470 C465 434 434 405 399 405 C369 405 342 418 310 438 C280 456 246 469 207 469 C144 469 106 431 76 386 L121 336 C141 371 172 401 208 401 C239 401 269 386 296 369 C328 349 364 337 401 337 C460 337 500 373 531 420 L531 420 Z M531 203 L486 253 C465 217 434 188 399 188 C369 188 342 201 310 221 C280 239 246 252 207 252 C144 252 106 215 76 170 L121 119 C141 154 172 184 208 184 C239 184 269 169 296 152 C328 132 364 120 401 120 C460 120 500 156 531 203 L531 203 Z " />
<glyph glyph-name="notequal" unicode="&#x2260;" horiz-adv-x="606" d="M513 152 L513 220 L302 220 L372 370 L513 370 L513 438 L404 438 L465 569 L393 569 L332 438 L94 438 L94 370 L300 370 L231 220 L94 220 L94 152 L199 152 L140 26 L213 26 L271 152 L513 152 Z " />
<glyph glyph-name="lessequal" unicode="&#x2264;" horiz-adv-x="606" d="M513 0 L513 68 L94 68 L94 0 L513 0 Z M513 135 L513 208 L192 353 L192 355 L513 499 L513 573 L94 379 L94 329 L513 135 Z " />
<glyph glyph-name="greaterequal" unicode="&#x2265;" horiz-adv-x="606" d="M512 0 L512 68 L94 68 L94 0 L512 0 Z M513 329 L513 380 L94 573 L94 500 L415 355 L415 353 L94 209 L94 135 L513 329 Z " />
<glyph glyph-name="lozenge" unicode="&#x25ca;" horiz-adv-x="561" d="M505 350 C437 467 368 583 299 700 L262 700 C194 583 125 466 56 349 C125 233 194 116 262 0 L299 0 C368 117 437 233 505 350 L505 350 Z M445 350 C390 257 335 165 280 72 C225 165 171 257 116 350 C171 442 226 535 281 628 C335 535 390 442 445 350 L445 350 Z " />
<glyph glyph-name="fi" unicode="&#xfb01;" horiz-adv-x="487" d="M109 531 L41 531 L41 471 L109 471 L109 0 L181 0 L181 471 L290 471 L290 531 L181 531 L181 566 C181 640 201 685 268 685 C315 685 341 661 350 617 L419 617 C414 694 357 751 269 751 C170 751 109 690 109 566 L109 531 Z M351 0 L419 0 L419 531 L351 531 L351 0 Z " />
<glyph glyph-name="fl" unicode="&#xfb02;" horiz-adv-x="485" d="M186 531 L186 565 C186 640 206 688 269 688 C344 688 352 624 352 557 L352 0 L424 0 L424 555 C424 605 420 646 403 676 C376 723 329 750 270 750 C195 750 138 707 121 636 C115 609 114 594 114 566 L114 531 L45 531 L45 471 L114 471 L114 0 L186 0 L186 471 L295 471 L295 531 L186 531 Z " />
</font>
</svg>
